Шепоты и крики / Viskningar och rop / Cries and Whispers (Ингмар Бергман / Ingmar Bergman) [1972, Швеция, драма, BDRip-AVC] [Criterion collection] MVO + Original Swe + Sub Rus, Eng


 

[Цитировать]

«A haunting and shattering film experience»Шепоты и крикиViskningar och ropCriterion collection #101- Страна: Швеция
Жанр: драма
Год выпуска: 1972
Продолжительность: 01:31:43-Перевод: Профессиональный (многоголосый, закадровый)
Оригинальная дорожка: Шведский
Субтитры: русские, английские
Режиссер: Ингмар Бергман / Ingmar Bergman

В ролях:
Харриет Андерссон (Agnes), Ингрид Тулин (Karin), Лив Ульман (Maria (and her mother)), Кари Сюльван (Anna), Андерс Эк (Isak, the priest), Инга Гилль (Story teller), Эрланд Юзефсон (David, the doctor), Хеннинг Моритцен (Joakim, Maria's husband), Георг Орлин (Fredrik, Karin's husband), Ингмар Бергман (рассказчик, озвучка, в титрах не указан, озвучка), Ингрид Бергман (Spectator, в титрах не указана), Лена Бергман (Maria as a child, в титрах не указана)
-
Описание: Великолепно снятая история жизни умирающей женщины, ее сестер и служанки. Прикованная к постели и медленно умирающая Агнес уже не в силах примирить присматривающих за ней сестер, Карин и Марию. Да и сестры уже не слишком заботятся о ней, переложив все заботы о больной на плечи преданной служанки Анны... Лишь она может принести Агнес некоторое утешение.
Наверное, одна из самых сильных и страшных картин Бергмана, в которой он проводит весьма недвусмысленные параллели между человеческими отношениями своих персонажей и героями Евангелия.

-

MPAA : R - Лицам до 17 лет обязательно присутствие взрослого
-Источник: Viskningar.och.rop.1972.1080p.BD-Remux.Rus.Swd.Eng.HDCLUB
Качество: BDRip-AVC | Сэмпл
Контейнер: MKV
Видео: AVC x264, 1010x606 (1.667), 23.976 fps, 3 013 Kbps, 0.205 bit/pixel
Аудио №1: AC3, 48.0 KHz, 192 Kbps, 2 channels (MVO)
Аудио №2: AC3, 48.0 KHz, 192 Kbps, 1 channel (Оригинал)
Формат субтитров : softsub (SRT)
Навигация по главам: есть
-

Скриншоты

-


x264 / MediaInfo


-
-[Information] [08.04.2015 17:34:56] x264 [info]: frame I:663 Avg QP:17.73 size: 85183-[Information] [08.04.2015 17:34:56] x264 [info]: frame P:22428 Avg QP:20.03 size: 29142-[Information] [08.04.2015 17:34:56] x264 [info]: frame B:108869 Avg QP:22.20 size: 12520
-
GeneralUnique ID : 253134903713495879917788588566602641534 (0xBE700254955933ABBE54357DC1DCF07E)Complete name : E:\shepoti.i.kriki.1972.critetrion.bdrip-avc.mkvFormat : MatroskaFormat version : Version 4 / Version 2File size : 2.18 GiBDuration : 1h 31mnOverall bit rate : 3 399 KbpsMovie name : Шепоты и крики / Viskningar och rop (1972) egiko'z rip // right nowEncoded by : egikoEncoded date : UTC 2015-04-08 16:56:02Writing application : mkvmerge v7.8.0 ('River Man') 64bit built on Mar 27 2015 16:31:37Writing library : libebml v1.3.1 + libmatroska v1.4.2Attachements : cover.jpgDIRECTOR : Ингмар БергманDATE_RELEASED : 1972SUMMARY : «A haunting and shattering film experience»COMMENT : criterion collection #101DURATION : 01:30:58.995000000NUMBER_OF_FRAMES : 576NUMBER_OF_BYTES : 17987_STATISTICS_WRITING_APP : mkvmerge v7.8.0 ('River Man') 64bit built on Mar 27 2015 16:31:37_STATISTICS_WRITING_DATE_UTC : 2015-04-08 16:56:02_STATISTICS_TAGS : BPS DURATION NUMBER_OF_FRAMES NUMBER_OF_BYTES
VideoID : 1Format : AVCFormat/Info : Advanced Video CodecFormat profile : High@L4.1Format settings, CABAC : YesFormat settings, ReFrames : 12 framesCodec ID : V_MPEG4/ISO/AVCDuration : 1h 31mnBit rate : 3 013 KbpsWidth : 1 010 pixelsHeight : 606 pixelsDisplay aspect ratio : 1.667Frame rate mode : ConstantFrame rate : 23.976 fpsColor space : YUVChroma subsampling : 4:2:0Bit depth : 8 bitsScan type : ProgressiveBits/(Pixel*Frame) : 0.205Stream size : 1.89 GiB (87%)Title : Шепоты и крики / Viskningar och ropWriting library : x264 core 146 r2538kMod 121396cEncoding settings : cabac=1 / ref=12 / deblock=1:-1:-1 / analyse=0x3:0x113 / me=umh / subme=10 / psy=1 / fade_compensate=0.00 / psy_rd=0.90:0.00 / mixed_ref=1 / me_range=32 / chroma_me=1 / trellis=2 / 8x8dct=1 / cqm=0 / deadzone=21,11 / fast_pskip=0 / chroma_qp_offset=-2 / threads=6 / lookahead_threads=1 / sliced_threads=0 / nr=0 / decimate=1 / interlaced=0 / bluray_compat=0 / constrained_intra=0 / fgo=0 / bframes=12 / b_pyramid=2 / b_adapt=2 / b_bias=0 / direct=3 / weightb=1 / open_gop=0 / weightp=2 / keyint=240 / keyint_min=23 / scenecut=40 / intra_refresh=0 / rc_lookahead=60 / rc=2pass / mbtree=0 / bitrate=3013 / ratetol=1.0 / qcomp=0.60 / qpmin=0 / qpmax=69 / qpstep=4 / cplxblur=20.0 / qblur=0.5 / vbv_maxrate=62500 / vbv_bufsize=78125 / nal_hrd=none / filler=0 / ip_ratio=1.40 / pb_ratio=1.30 / aq=1:0.80Language : SwedishDefault : YesForced : NoDURATION : 01:31:43.832000000NUMBER_OF_FRAMES : 131960NUMBER_OF_BYTES : 2073096112_STATISTICS_WRITING_APP : mkvmerge v7.8.0 ('River Man') 64bit built on Mar 27 2015 16:31:37_STATISTICS_WRITING_DATE_UTC : 2015-04-08 16:56:02_STATISTICS_TAGS : BPS DURATION NUMBER_OF_FRAMES NUMBER_OF_BYTES
Audio #1ID : 2Format : AC-3Format/Info : Audio Coding 3Mode extension : CM (complete main)Format settings, Endianness : BigCodec ID : A_AC3Duration : 1h 31mnBit rate mode : ConstantBit rate : 192 KbpsChannel(s) : 2 channelsChannel positions : Front: L RSampling rate : 48.0 KHzBit depth : 16 bitsCompression mode : LossyStream size : 126 MiB (6%)Title : MVOLanguage : RussianDefault : YesForced : No
Audio #2ID : 3Format : AC-3Format/Info : Audio Coding 3Mode extension : CM (complete main)Format settings, Endianness : BigCodec ID : A_AC3Duration : 1h 31mnBit rate mode : ConstantBit rate : 192 KbpsChannel(s) : 1 channelChannel positions : Front: CSampling rate : 48.0 KHzBit depth : 16 bitsCompression mode : LossyStream size : 126 MiB (6%)Title : ОригиналLanguage : SwedishDefault : NoForced : No
Text #1ID : 4Format : UTF-8Codec ID : S_TEXT/UTF8Codec ID/Info : UTF-8 Plain TextLanguage : RussianDefault : NoForced : No
Text #2ID : 5Format : UTF-8Codec ID : S_TEXT/UTF8Codec ID/Info : UTF-8 Plain TextLanguage : EnglishDefault : NoForced : No
Menu00:00:00.000 : en:00:00:00.00000:03:30.293 : en:00:03:30.29300:10:18.993 : en:00:10:18.99300:13:00.279 : en:00:13:00.27900:16:40.374 : en:00:16:40.37400:21:40.674 : en:00:21:40.67400:28:14.567 : en:00:28:14.56700:32:12.055 : en:00:32:12.05500:38:57.543 : en:00:38:57.54300:47:46.738 : en:00:47:46.73800:52:35.277 : en:00:52:35.27700:56:57.705 : en:00:56:57.70501:02:15.815 : en:01:02:15.81501:07:46.771 : en:01:07:46.77101:14:50.861 : en:01:14:50.86101:18:30.539 : en:01:18:30.53901:24:54.130 : en:01:24:54.13001:29:11.763 : en:01:29:11.763



Показать сообщения:    

Текущее время: 04-Дек 11:14

Часовой пояс: UTC + 3


Вы не можете начинать темы
Вы не можете отвечать на сообщения
Вы не можете редактировать свои сообщения
Вы не можете удалять свои сообщения
Вы не можете голосовать в опросах
Вы не можете прикреплять файлы к сообщениям
Вы не можете скачивать файлы