Дух улья / El Espíritu de la colmena / The Spirit of the Beehive (Виктор Эрисе / Víctor Erice) [1973, Испания, Фэнтези, драма, BDRip-AVC] MVO (Фортуна-Фильм) + Sub Rus, Eng + Original Spa


 

[Цитировать]

-Дух улья / El Espíritu de la colmena Страна: Испания
Жанр: фэнтези, драма
Год выпуска: 1973
Продолжительность: 01:38:28-Перевод: Профессиональный (многоголосый закадровый)
|Фортуна-Фильм|-Cубтитры: русские, английские
Оригинальная аудиодорожка: испанский-Режиссер: Виктор Эрисе / Víctor Erice-В ролях-Фернандо Фернан Гомес, Тереса Химпера, Ана Торрент, Изабель Тельерия, Кетти де ла Камара, Эстанис Гонсалес, Хосе Вильясанте, Хуан Франсиско Маргальо, Лали Сольдевила, Мигель Пикасо-Описание-Фильм - рассказ о том, как маленькая Ана под впечатлением от просмотра знаменитого «Франкенштейна» и «страшилок» о духе, поведанных шепотом, перед сном, ее старшей сестрой, упорно наведывается в заброшенный дом посреди полей, искренне веря в то, что призрак однажды явится...-Качество видео: BDRip -Контейнер: MKV-Видео: AVC, 1024х576 (16:9), ~3400 kbps, 24.000 fps,
Аудио: AC-3, 224 kbps, Dolby Digital, 2 (L,R), 48 KHz |MVO|
Аудио: AC-3, 224 kbps, Dolby Digital, 2 (L,R), 48 KHz |Оригинал|
Формат субтитров: softsub (SRT)--

MediaInfox264

Spline64Resize(1024, 576)
FillMargins(1, 0, 1, 0)
VIDEO ENCODING
------------------------------
Encoding video to: F:\Temp\0035.264
x264 Q19.2 1024x576 24.000fps (141813 frames)
avs4x26x.exe: -L x264_64.exe --crf 19.2 --preset veryslow --profile high --level 4.1 --ref 14 --aq-mode 3 --aq-strength 0.70 --deblock -3:-3 --merange 48 --bframes 16 --psy-rd 0.95:0.00 --subme 11 --no-mbtree --keyint 240 --colorprim bt709 --transfer bt709 --colormatrix bt709 --vbv-bufsize 50000 --vbv-maxrate 62500 --partitions p8x8,b8x8,i4x4,i8x8 --zones 138500,141813,q=30 --sar 1:1 --output "F:\Temp\0035.264" "F:\Temp\0035.avs"
raw [info]: 1024x576p 1:1 @ 10000000/416667 fps (cfr)
x264 [info]: using SAR=1/1
x264 [info]: using cpu capabilities: MMX2 SSE2Fast LZCNT
x264 [info]: profile High, level 4.1
x264 [info]: frame I:792 Avg QP:17.75 size: 67535
x264 [info]: frame P:21719 Avg QP:19.86 size: 30643
x264 [info]: frame B:119302 Avg QP:22.19 size: 15483
x264 [info]: consecutive B-frames: 0.8% 0.4% 1.2% 6.1% 8.7% 39.3% 9.8% 5.8% 7.9% 3.6% 4.5% 5.0% 2.8% 1.1% 1.2% 0.4% 1.3%
x264 [info]: mb I I16..4: 8.5% 76.7% 14.8%
x264 [info]: mb P I16..4: 0.2% 8.3% 0.5% P16..4: 28.8% 32.9% 13.3% 0.0% 0.0% skip:16.0%
x264 [info]: mb B I16..4: 0.0% 1.5% 0.1% B16..8: 32.8% 19.3% 4.6% direct: 9.7% skip:32.0% L0:49.5% L1:39.7% BI:10.8%
x264 [info]: 8x8 transform intra:90.3% inter:58.1%
x264 [info]: direct mvs spatial:99.4% temporal:0.6%
x264 [info]: coded y,uvDC,uvAC intra: 88.7% 76.4% 54.9% inter: 39.1% 21.4% 3.5%
x264 [info]: i16 v,h,dc,p: 57% 11% 18% 15%
x264 [info]: i8 v,h,dc,ddl,ddr,vr,hd,vl,hu: 8% 6% 12% 11% 14% 13% 13% 11% 12%
x264 [info]: i4 v,h,dc,ddl,ddr,vr,hd,vl,hu: 14% 6% 18% 8% 12% 11% 10% 9% 11%
x264 [info]: i8c dc,h,v,p: 42% 26% 16% 15%
x264 [info]: Weighted P-Frames: Y:20.6% UV:10.9%
x264 [info]: ref P L0: 33.0% 8.8% 16.7% 8.1% 7.0% 5.4% 5.0% 2.8% 2.7% 2.3% 2.3% 2.0% 1.9% 1.8% 0.3% 0.0%
x264 [info]: ref B L0: 53.7% 14.4% 8.6% 5.0% 4.0% 3.5% 3.0% 1.9% 1.7% 1.6% 1.4% 0.8% 0.3%
x264 [info]: ref B L1: 87.8% 12.2%
x264 [info]: kb/s:3474.35
Формат : Matroska
Версия формата : Version 2
Размер файла : 2,70 Гбайт
Продолжительность : 1 ч. 38 м.
Общий поток : 3924 Кбит/сек
Название фильма : Дух улья / El Espíritu de la colmena____1973
Дата кодирования : UTC 2015-04-08 08:00:48
Программа кодирования : mkvmerge v7.6.0 ('Garden of Dreams') 32bit built on Feb 11 2015 00:18:47
Библиотека кодирования : libebml v1.3.1 + libmatroska v1.4.2
Видео
Идентификатор : 1
Формат : AVC
Формат/Информация : Advanced Video Codec
Профиль формата : High@L4.1
Параметр CABAC формата : Да
Параметр ReFrames формата : 14 кадров
Идентификатор кодека : V_MPEG4/ISO/AVC
Продолжительность : 1 ч. 38 м.
Битрейт : 3398 Кбит/сек
Ширина : 1024 пикселя
Высота : 576 пикселей
Соотношение сторон : 16:9
Частота кадров : 24,000 кадра/сек
Цветовое пространство : YUV
Субдискретизация насыщенности : 4:2:0
Битовая глубина : 8 бит
Тип развёртки : Прогрессивная
Бит/(Пиксели*Кадры) : 0.240
Размер потока : 2,34 Гбайт (87%)
Заголовок : The.Spirit.of.the.Beehive_BDRip_cw_RGTru
Библиотека кодирования : x264 core 144 r2525 40bb568
Настройки программы : cabac=1 / ref=14 / deblock=1:-3:-3 / analyse=0x3:0x113 / me=umh / subme=11 / psy=1 / psy_rd=0.95:0.00 / mixed_ref=1 / me_range=48 / chroma_me=1 / trellis=2 / 8x8dct=1 / cqm=0 / deadzone=21,11 / fast_pskip=1 / chroma_qp_offset=-2 / threads=4 / lookahead_threads=1 / sliced_threads=0 / nr=0 / decimate=1 / interlaced=0 / bluray_compat=0 / constrained_intra=0 / bframes=16 / b_pyramid=2 / b_adapt=2 / b_bias=0 / direct=3 / weightb=1 / open_gop=0 / weightp=2 / keyint=240 / keyint_min=23 / scenecut=40 / intra_refresh=0 / rc_lookahead=60 / rc=crf / mbtree=0 / crf=19.2 / qcomp=0.60 / qpmin=0 / qpmax=69 / qpstep=4 / vbv_maxrate=62500 / vbv_bufsize=50000 / crf_max=0.0 / nal_hrd=none / filler=0 / ip_ratio=1.40 / pb_ratio=1.30 / aq=3:0.70 / zones=138500,141813,q=30
Язык : Spanish
Default : Да
Forced : Нет
Основные цвета : BT.709-5, BT.1361, IEC 61966-2-4, SMPTE RP177
Характеристики трансфера : BT.709-5, BT.1361
Коэффициенты матрицы : BT.709-5, BT.1361, IEC 61966-2-4 709, SMPTE RP177
Аудио #1
Идентификатор : 2
Формат : AC-3
Формат/Информация : Audio Coding 3
Расширение режима : CM (complete main)
Параметр Endianness формата : Big
Идентификатор кодека : A_AC3
Продолжительность : 1 ч. 38 м.
Вид битрейта : Постоянный
Битрейт : 224 Кбит/сек
Каналы : 2 канала
Расположение каналов : Front: L R
Частота : 48,0 КГц
Битовая глубина : 16 бит
Метод сжатия : С потерями
Размер потока : 158 Мбайт (6%)
Язык : Russian
Default : Да
Forced : Нет
Аудио #2
Идентификатор : 3
Формат : AC-3
Формат/Информация : Audio Coding 3
Расширение режима : CM (complete main)
Параметр Endianness формата : Big
Идентификатор кодека : A_AC3
Продолжительность : 1 ч. 38 м.
Вид битрейта : Постоянный
Битрейт : 224 Кбит/сек
Каналы : 2 канала
Расположение каналов : Front: L R
Частота : 48,0 КГц
Битовая глубина : 16 бит
Метод сжатия : С потерями
Размер потока : 158 Мбайт (6%)
Язык : Spanish
Default : Нет
Forced : Нет
Текст #1
Идентификатор : 4
Формат : UTF-8
Идентификатор кодека : S_TEXT/UTF8
Идентификатор кодека/Информация : UTF-8 Plain Text
Язык : Russian
Default : Да
Forced : Нет
Текст #2
Идентификатор : 5
Формат : UTF-8
Идентификатор кодека : S_TEXT/UTF8
Идентификатор кодека/Информация : UTF-8 Plain Text
Язык : English
Default : Нет
Forced : Нет
Меню
00:00:00.000 : en:Chapter 1
00:05:20.792 : en:Chapter 2
00:14:01.458 : en:Chapter 3
00:23:55.750 : en:Chapter 4
00:30:30.000 : en:Chapter 5
00:40:01.000 : en:Chapter 6
00:49:32.917 : en:Chapter 7
00:57:41.958 : en:Chapter 8
01:05:55.000 : en:Chapter 9
01:13:49.000 : en:Chapter 10
01:21:00.000 : en:Chapter 11
01:27:49.000 : en:Chapter 12

Сравнение с исходником

BD- Rip



Показать сообщения:    

Текущее время: 09-Дек 08:54

Часовой пояс: UTC + 3


Вы не можете начинать темы
Вы не можете отвечать на сообщения
Вы не можете редактировать свои сообщения
Вы не можете удалять свои сообщения
Вы не можете голосовать в опросах
Вы не можете прикреплять файлы к сообщениям
Вы не можете скачивать файлы