Носферату: Призрак ночи / Nosferatu: Phantom der Nacht (Вернер Херцог / Werner Herzog) [1979, Германия (ФРГ), Франция, ужасы, BDRip-AVC] MVO (Петербург 5 канал) + Original (Ger) + Sub (Rus)


 

[Цитировать]

Носферату: Призрак ночи / Nosferatu: Phantom der Nacht- Страна: Германия (ФРГ), Франция
Жанр: ужасы
Год выпуска: 1979
Продолжительность: 01:47:06-Перевод: Профессиональный (многоголосый закадровый) - Петербург 5 канал
Оригинальная аудиодорожка: German
Cубтитры: Русские (полные)
Навигация по главам: присутствует - 19 глав-Режиссер: Вернер Херцог / Werner Herzog
В ролях: Клаус Кински, Изабель Аджани, Бруно Ганц, Роланд Топор, Вальтер Ладенгаст, Дэн Ван Хузен, Ян Грот, Карстен Бодинус, Мартье Громанн, Рейк де Гойер, Клеменс Шайц, Ло ван Хенсберген, Джон Ледди, Тим Бекман, Жак Дюфило, Роджер Берри Лош, Беверли Уокер, Майкл Эдолс-Описание: Агента по недвижимости Джонатана Харкера отправляют в Трансильванию в замок графа Дракулы, который выразил желание приобрести себе особняк в Германии. По прибытию в замок графа, Харкер подписывает все необходимые бумаги, но при этом случайно роняет медальон с фотографией своей молодой жены Люси.-
Download sample-Качество видео: BDRip-AVC | исх. xamster
Формат: MKV-Видео: 1 132x612 (1.85:1), 23.976 fps, H.264 ~4 300 kbps avg, 0.252 bit/pixel
Аудио №1: 48.0 kHz, AC3 Dolby Digital, 2/0 (L,R) ch, ~192 kbps | Профессиональный (многоголосый закадровый) - Петербург 5 канал
Аудио №2: 48.0 kHz, AC3 Dolby Digital, 3/2 (L,C,R,l,r) + LFE ch, ~448 kbps | German
Субтитры: Русские (полные) | *.srt-

MediaInfo

General
Unique ID : 231301533012311837320154256900766088714 (0xAE030E0B60AA7547B37672CA5370BE0A)
Complete name : D:\Фильмы\Рипы\Nosferatu Phantom der Nacht.1979.BDRip-AVC.eFK tRuAVC.mkv
Format : Matroska
Format version : Version 4 / Version 2
File size : 3.69 GiB
Duration : 1h 47mn
Overall bit rate : 4 927 Kbps
Movie name : Носферату: Призрак ночи / Nosferatu: Phantom der Nacht (1979) -
Encoded date : UTC 2015-04-08 03:58:17
Writing application : mkvmerge v7.6.0 ('Garden of Dreams') 64bit built on Feb 8 2015 13:04:34
Writing library : libebml v1.3.1 + libmatroska v1.4.2
Attachements : cover.png
DURATION : 01:42:46.749000000
NUMBER_OF_FRAMES : 429
NUMBER_OF_BYTES : 25447
_STATISTICS_WRITING_APP : mkvmerge v7.6.0 ('Garden of Dreams') 64bit built on Feb 8 2015 13:04:34
_STATISTICS_WRITING_DATE_UT : 2015-04-08 03:58:17
_STATISTICS_TAGS : BPS DURATION NUMBER_OF_FRAMES NUMBER_OF_BYTES
Video
ID : 1
Format : AVC
Format/Info : Advanced Video Codec
Format profile : High@L4.1
Format settings, CABAC : Yes
Format settings, ReFrames : 10 frames
Codec ID : V_MPEG4/ISO/AVC
Duration : 1h 47mn
Bit rate : 4 189 Kbps
Width : 1 132 pixels
Height : 612 pixels
Display aspect ratio : 1.85:1
Frame rate mode : Constant
Frame rate : 23.976 fps
Color space : YUV
Chroma subsampling : 4:2:0
Bit depth : 8 bits
Scan type : Progressive
Bits/(Pixel*Frame) : 0.252
Stream size : 3.13 GiB (85%)
Title : eFK tRuAVC
Writing library : x264 core 146 r2538kMod 121396c
Encoding settings : cabac=1 / ref=10 / deblock=1:-3:-3 / analyse=0x3:0x133 / me=umh / subme=11 / psy=1 / fade_compensate=0.00 / psy_rd=0.90:0.00 / mixed_ref=1 / me_range=32 / chroma_me=1 / trellis=2 / 8x8dct=1 / cqm=0 / deadzone=21,11 / fast_pskip=0 / chroma_qp_offset=-2 / threads=12 / lookahead_threads=3 / sliced_threads=0 / nr=0 / decimate=1 / interlaced=0 / bluray_compat=0 / constrained_intra=0 / fgo=0 / bframes=16 / b_pyramid=2 / b_adapt=2 / b_bias=0 / direct=3 / weightb=1 / open_gop=0 / weightp=2 / keyint=250 / keyint_min=23 / scenecut=40 / intra_refresh=0 / rc_lookahead=60 / rc=crf / mbtree=0 / crf=18.1000 / qcomp=0.50 / qpmin=0 / qpmax=69 / qpstep=4 / vbv_maxrate=50000 / vbv_bufsize=62500 / crf_max=0.0 / nal_hrd=none / filler=0 / ip_ratio=1.40 / pb_ratio=1.30 / aq=3:0.90
Language : German
Default : Yes
Forced : No
Color primaries : BT.709
Transfer characteristics : BT.709
Matrix coefficients : BT.709
Color range : Limited
DURATION : 01:46:52.823000000
NUMBER_OF_FRAMES : 153754
NUMBER_OF_BYTES : 3440159192
_STATISTICS_WRITING_APP : mkvmerge v7.6.0 ('Garden of Dreams') 64bit built on Feb 8 2015 13:04:34
_STATISTICS_WRITING_DATE_UT : 2015-04-08 03:58:17
_STATISTICS_TAGS : BPS DURATION NUMBER_OF_FRAMES NUMBER_OF_BYTES
Audio #1
ID : 2
Format : AC-3
Format/Info : Audio Coding 3
Format profile : Dolby Digital
Mode extension : CM (complete main)
Format settings, Endianness : Big
Codec ID : A_AC3
Duration : 1h 47mn
Bit rate mode : Constant
Bit rate : 192 Kbps
Channel(s) : 2 channels
Channel positions : Front: L R
Sampling rate : 48.0 KHz
Bit depth : 16 bits
Compression mode : Lossy
Stream size : 147 MiB (4%)
Title : MVO (Петербург 5 канал)
Language : Russian
Default : Yes
Forced : No
Audio #2
ID : 3
Format : AC-3
Format/Info : Audio Coding 3
Mode extension : CM (complete main)
Format settings, Endianness : Big
Codec ID : A_AC3
Duration : 1h 47mn
Bit rate mode : Constant
Bit rate : 448 Kbps
Channel(s) : 6 channels
Channel positions : Front: L C R, Side: L R, LFE
Sampling rate : 48.0 KHz
Bit depth : 16 bits
Compression mode : Lossy
Stream size : 343 MiB (9%)
Language : German
Default : No
Forced : No
Text
ID : 4
Format : UTF-8
Codec ID : S_TEXT/UTF8
Codec ID/Info : UTF-8 Plain Text
Title : полные
Language : Russian
Default : No
Forced : No
Menu
00:00:00.000 : :Chapter 01
00:05:57.023 : :Chapter 02
00:09:34.615 : :Chapter 03
00:12:23.742 : :Chapter 04
00:14:11.016 : :Chapter 05
00:19:20.450 : :Chapter 06
00:27:16.967 : :Chapter 07
00:33:38.099 : :Chapter 08
00:40:44.275 : :Chapter 09
00:46:33.373 : :Chapter 10
00:52:23.765 : :Chapter 11
00:53:53.980 : :Chapter 12
00:57:39.706 : :Chapter 13
01:04:07.051 : :Chapter 14
01:06:07.921 : :Chapter 15
01:10:14.877 : :Chapter 16
01:18:18.235 : :Chapter 17
01:26:54.751 : :Chapter 18
01:46:52.405 : :Chapter 19

x264 log

x264 [info]: frame I:729 Avg QP:15.76 size: 92116
x264 [info]: frame P:27763 Avg QP:17.17 size: 42717
x264 [info]: frame B:125262 Avg QP:19.49 size: 17460
x264 [info]: consecutive B-frames: 0.7% 0.4% 2.7% 7.7% 16.0% 61.4% 7.5% 0.7% 0.9% 0.4% 0.4% 0.4% 0.2% 0.1% 0.1% 0.0% 0.5%
x264 [info]: mb I I16..4: 3.8% 80.8% 15.5%
x264 [info]: mb P I16..4: 0.6% 14.1% 1.6% P16..4: 28.1% 36.2% 15.7% 1.8% 0.1% skip: 1.8%
x264 [info]: mb B I16..4: 0.1% 1.8% 0.2% B16..8: 35.6% 19.7% 4.0% direct: 9.4% skip:29.2% L0:42.8% L1:47.0% BI:10.2%
x264 [info]: 8x8 transform intra:85.9% inter:52.8%
x264 [info]: direct mvs spatial:99.8% temporal:0.2%
x264 [info]: coded y,uvDC,uvAC intra: 89.6% 69.7% 42.2% inter: 36.6% 18.7% 2.3%
x264 [info]: i16 v,h,dc,p: 57% 14% 8% 22%
x264 [info]: i8 v,h,dc,ddl,ddr,vr,hd,vl,hu: 9% 6% 14% 10% 13% 12% 12% 11% 13%
x264 [info]: i4 v,h,dc,ddl,ddr,vr,hd,vl,hu: 35% 6% 11% 7% 9% 9% 8% 7% 8%
x264 [info]: i8c dc,h,v,p: 36% 34% 19% 11%
x264 [info]: Weighted P-Frames: Y:4.5% UV:2.0%
x264 [info]: ref P L0: 35.4% 7.8% 19.0% 8.1% 7.6% 5.9% 5.8% 3.5% 3.5% 3.2% 0.2% 0.0%
x264 [info]: ref B L0: 73.1% 10.8% 5.4% 3.0% 2.4% 2.1% 1.8% 0.9% 0.5%
x264 [info]: ref B L1: 94.4% 5.6%
x264 [info]: kb/s:4291.60
x264 [total]: encoded 153754 frames, 7.72 fps, 4291.60 kb/s, duration 5:32:08.73

Comparison

Source

Encode



Показать сообщения:    

Текущее время: 06-Дек 22:53

Часовой пояс: UTC + 3


Вы не можете начинать темы
Вы не можете отвечать на сообщения
Вы не можете редактировать свои сообщения
Вы не можете удалять свои сообщения
Вы не можете голосовать в опросах
Вы не можете прикреплять файлы к сообщениям
Вы не можете скачивать файлы