Темная лошадка / Dark Horse (Тодд Солондз / Todd Solondz) [2011, США, драма, HDRip] MVO


 

[Цитировать]

Темная лошадка / Dark Horse
Страна: США
Жанр: драма
Год выпуска: 2011
Продолжительность: 01:25:46
Перевод: Профессиональный (многоголосый закадровый)
Cубтитры: нет

Режиссер: Тодд Солондз / Todd Solondz
В ролях: Джастин Барта, Сэльма Блэр, Миа Фэрроу, Джордан Гелбер, Донна Мерфи, Кристофер Уокен, Закари Бут, Аасиф Мандви, Тайлер Мэйнард, Питер МакРобби
Описание: Герой ленты нелепый и полный инфантил среднего возраста, проживающий у родителей и за их счет. Любому мужчине надо когда-то определяться в семейных отношениях, и наш маменькин сынок делает предложение слегка отмороженной девице со странностями. Но намечающийся союз двух мега-фриков будет безжалостно испробован жизнью на прочность.
Качество видео: HDRip [Dark.Horse.(Todd.Solondz.2011).BDRip.720p.mkv]
Формат видео: AVI
Видео: 656x352 (1.86:1), 23.976 fps, XviD build 73 ~1072 kbps avg, 0.19 bit/pixel
Аудио: 48 kHz, MPEG Layer 3, 2 ch, ~128.00 kbps avg

MediaInfo

Общее
Полное имя : H:\Dark.Horse.2011.hdrip_[745]_[teko].avi
Формат : AVI
Формат/Информация : Audio Video Interleave
Размер файла : 742 Мбайт
Продолжительность : 1 ч. 25 м.
Общий поток : 1207 Кбит/сек
Программа кодирования : VirtualDubMod 1.5.10.3 | www.virtualdub-fr.org || (build 2550/release)
Библиотека кодирования : VirtualDubMod build 2550/release
Видео
Идентификатор : 0
Формат : MPEG-4 Visual
Профиль формата : Advanced Simple@L5
Параметр BVOP формата : 2
Параметр QPel формата : Нет
Параметр GMC формата : Без точки перехода
Параметр матрицы формата : Выборочная
Идентификатор кодека : XVID
Идентификатор кодека/Подсказка : XviD
Продолжительность : 1 ч. 25 м.
Битрейт : 1070 Кбит/сек
Ширина : 656 пикселей
Высота : 352 пикселя
Соотношение сторон : 1,85:1
Частота кадров : 23,976 кадра/сек
Цветовое пространство : YUV
Субдискретизация насыщенности : 4:2:0
Битовая глубина : 8 бит
Тип развёртки : Прогрессивная
Метод сжатия : С потерями
Бит/(Пиксели*Кадры) : 0.193
Размер потока : 658 Мбайт (89%)
Библиотека кодирования : XviD 73
Аудио
Идентификатор : 1
Формат : MPEG Audio
Версия формата : Version 1
Профиль формата : Layer 3
Идентификатор кодека : 55
Идентификатор кодека/Подсказка : MP3
Продолжительность : 1 ч. 25 м.
Вид битрейта : Постоянный
Битрейт : 128 Кбит/сек
Каналы : 2 канала
Частота : 48,0 КГц
Метод сжатия : С потерями
Размер потока : 78,7 Мбайт (11%)
Выравнивание : Соединение по промежуткам
Продолжительность промежутка : 42 мс. (1,00 видеокадр)
Время предзагрузки промежутка : 504 мс.
Библиотека кодирования : LAME3.98r
Настройки программы : -m s -V 4 -q 2 -lowpass 17 -b 128



Показать сообщения:    

Текущее время: 04-Дек 09:02

Часовой пояс: UTC + 3


Вы не можете начинать темы
Вы не можете отвечать на сообщения
Вы не можете редактировать свои сообщения
Вы не можете удалять свои сообщения
Вы не можете голосовать в опросах
Вы не можете прикреплять файлы к сообщениям
Вы не можете скачивать файлы