Исцеление. Жизнь другой / Cure: The Life of Another (Андреа Стака / Andrea Staka) [2014, Швейцария, Хорватия, Босния-Герцеговина, драма, триллер, DVDRip] + Sub Rus


Статистика раздачи [Обновить пиров]
Размер:  1.36 GB   |    Зарегистрирован:  1 год 1 месяц   |    Скачан:  0 раз

Полного источника не было: Никогда

 
   
 
 
 

[Цитировать]

Исцеление. Жизнь другой / Cure: The Life of Another
Страна: Швейцария, Хорватия, Босния-Герцеговина
Жанр: драма, триллер
Год выпуска: 2014
Продолжительность: 01:19:40
Перевод: Субтитры
Cубтитры: русские: creo140
Оригинальная аудиодорожка: хорватский, немецкий
Режиссер: Андреа Стака / Andrea Staka
В ролях: Миряна Каранович, Мария Скаричич, Леон Лючев, Франьо Дияк, Луция Радулович
Описание: 1993, Дубровник, год после осады. Город все еще потрясен и изранен ужасами войны и следы этого мучительного прошлого до сих пор видны на стенах домов, но прежде всего в умах и в сердцах его жителей. Линда приехала в Хорватию из Швейцарии. Она случайно убивает свою подругу, скинув её со скалы. Им по 14 лет. Её, Линду, начинает преследовать эта мёртвая подружка. Её так и зовут в фильме - Эта. К Линде попадает личный дневник Эты. Она читает его и проживает жизнь Эты.
Доп. информация: http://www.kinopoisk.ru/film/517971/
http://www.imdb.com/title/tt1554929/
Сэмпл: http://multi-up.com/1042346
Качество видео: DVDRip
Формат видео: AVI
Видео: Xvid 720x384 25fps 1988kbps
Аудио: Dolby AC3 48000Hz 6ch 448kbps
Формат субтитров: softsub (SRT)

Фрагмент субтитров

3
00:00:32,540 --> 00:00:35,532
Вдохновлённая реальной историей.
4
00:00:37,540 --> 00:00:40,632
Дубровник.
Год после осады.
5
00:00:40,640 --> 00:00:45,332
За пределами города,
бесконечная война.
6
00:00:45,340 --> 00:00:48,632
Вербное воскресенье.
1993 год.
7
00:00:58,640 --> 00:01:01,632
В Швейцарии я никогда
не ходила в церковь.
8
00:01:02,440 --> 00:01:04,908
Так получилось,
что мои мама и папа развелись.
9
00:01:05,280 --> 00:01:07,077
И потом мама умерла.
10
00:01:07,440 --> 00:01:09,078
Ну не совсем чтобы умерла...
11
00:01:09,720 --> 00:01:10,948
Она живёт...
12
00:01:12,040 --> 00:01:14,235
Но в Швейцарии и без меня.
13
00:01:16,160 --> 00:01:17,832
Сейчас я дружу с Этой.
14
00:01:18,280 --> 00:01:21,955
Она местная,
поэтому она прожила здесь всю войну.
15
00:02:14,520 --> 00:02:15,475
Эта.
16
00:02:38,040 --> 00:02:40,235
Линде не очень хорошо,
я выведу её на улицу.

MediaInfo

Format : AVI
Format/Info : Audio Video Interleave
File size : 1.36 GiB
Duration : 1h 19mn
Overall bit rate : 2 447 Kbps
Writing application : VirtualDubMod 1.5.10.3 | www.virtualdub-fr.org || (build 2550/release)
Writing library : VirtualDubMod build 2550/release
Video
ID : 0
Format : MPEG-4 Visual
Format profile : Advanced Simple@L5
Format settings, BVOP : Yes
Format settings, QPel : No
Format settings, GMC : No warppoints
Format settings, Matrix : Default (MPEG)
Codec ID : XVID
Codec ID/Hint : XviD
Duration : 1h 19mn
Bit rate : 1 989 Kbps
Width : 720 pixels
Height : 384 pixels
Display aspect ratio : 1.85:1
Frame rate : 25.000 fps
Color space : YUV
Chroma subsampling : 4:2:0
Bit depth : 8 bits
Scan type : Progressive
Compression mode : Lossy
Bits/(Pixel*Frame) : 0.288
Stream size : 1.11 GiB (81%)
Writing library : XviD 1.2.1 (UTC 2008-12-04)
Audio
ID : 1
Format : AC-3
Format/Info : Audio Coding 3
Mode extension : CM (complete main)
Format settings, Endianness : Big
Codec ID : 2000
Duration : 1h 19mn
Bit rate mode : Constant
Bit rate : 448 Kbps
Channel(s) : 6 channels
Channel positions : Front: L C R, Side: L R, LFE
Sampling rate : 48.0 KHz
Bit depth : 16 bits
Compression mode : Lossy
Stream size : 255 MiB (18%)
Alignment : Split accross interleaves
Interleave, duration : 40 ms (1.00 video frame)
Interleave, preload duration : 500 ms

Скриншот c названием фильма

[teatrix.ru].t5913.torrent 
Торрент: Зарегистрирован [ 2015-10-10 09:49 ] · 11B45ABD808A9F8567C2D8FCE261AE6283456A7F

Скачать .torrent

Скачать

14 KB

Статус: проверено
Скачан: 0 раз
Размер: 1.36 GB
terms.php



Быстрый ответ

Имя:

      
Для отправки сообщений необходимо включить JavaScript
Показать сообщения:    

Текущее время: 08-Дек 23:12

Часовой пояс: UTC + 3


Вы можете начинать темы
Вы можете отвечать на сообщения
Вы не можете редактировать свои сообщения
Вы не можете удалять свои сообщения
Вы не можете голосовать в опросах
Вы не можете прикреплять файлы к сообщениям
Вы можете скачивать файлы