Место другого / La place d'un autre (Рене Фере / Rene Feret) [1993, Франция, драма, DVDRip] + Sub Rus + Original Fre


Статистика раздачи [Обновить пиров]
Размер:  950 MB   |    Зарегистрирован:  1 год 1 месяц   |    Скачан:  0 раз

Полного источника не было: Никогда

 
   
 
 
 

[Цитировать]

Место другого / La place d'un autre
Страна: Франция
Жанр: драма
Год выпуска: 1993
Продолжительность: 01:15:28
Перевод: Субтитры
Cубтитры: русские
Оригинальная аудиодорожка: французский
Режиссер: Рене Фере / Rene Feret
В ролях: Самюэль Ле Бьян/Samuel Le Bihan, Сесиль Буа/Cécile Bois, Филипп Клевено/Philippe Clévenot, Сюзи Рамбо/Suzy Rambaud, Фредерик Грациани/Frédéric Graziani, Соня Сорен/Sonia Saurin, Фредерик Хюн/Frédéric Hulne, Эльза Зильберштейн/Elsa Zylberstein, Жак Боннаффе/Jacques Bonnaffé
Описание: У талантливого актёра Томá Граве – широкая чёрная полоса в жизни. Тяжёлые события тянутся, накладываются друг на друга, умножая разрушительную силу: расставание с девушкой, смертельная болезнь отца, автокатастрофа, нервное расстройство, проблемы в театре… И всё это сломило Томá Граве – он попадает в психиатрическую лечебницу.
Фильм мог бы показаться искусственным нагромождением мелодраматических событий, но на самом деле он автобиографичен, как и некоторые другие работы Рене Фере: все события в фильме действительно случились с режиссёром, его отцом, братом, матерью и другими близкими людьми. Как, например, и Филипп Гаррель, но на свой манер и сообразно своему авторскому стилю, Рене Фере заново проживает в фильмах свою жизнь, которая вполне может оказаться близкой и понятной многим зрителям.
«Место другого» это ещё и некий приквел «Истории Поля» (1975), кинематографического дебюта Фере, в котором он показал жизнь психиатрической лечебницы.

Цикл кинокритических статей «Вокруг Фуко»

Алексей Тютькин. Рене. Фере. Круг замкнулся http://kinoart.ru/blogs/krug-zamknulsya
Алексей Тютькин. Рене Аллио. Убийство на грани мечты http://www.kinoart.ru/blogs/rene-allio-ubijstvo-na-grani-mechty
Алексей Тютькин. Николя Филибер. Праздник безумцев http://kinoart.ru/blogs/prazdnik-bezumtsev
Доп. информация: Перевод – daft-digger, дополнительный тайминг и подготовка субтитров – alex-kin.
Файл взят с Карагарги, за что благодарим EceAyhan.
Сэмпл: http://multi-up.com/1038027
Качество видео: DVDRip
Формат видео: AVI
Видео: XviD build 50 at 1557 kbps, 0.23 bit/pixel, 672x400 (1.68:1) at 25 fps
Аудио: AC3 Dolby Digital at 192.00 kbps, 2/0 (L,R) Surround Encoded ch, 48 kHz
Формат субтитров: softsub (SRT)

MediaInfo

Формат : AVI
Формат/Информация : Audio Video Interleave
Размер файла : 950 Мбайт
Продолжительность : 1 ч. 15 м.
Общий поток : 1760 Кбит/сек
Программа кодирования : VirtualDubMod 1.5.10.2 (build 2540/release)
Библиотека кодирования : VirtualDubMod build 2540/release
Видео
Идентификатор : 0
Формат : MPEG-4 Visual
Профиль формата : Advanced Simple@L5
Параметр BVOP формата : 2
Параметр QPel формата : Нет
Параметр GMC формата : Без точки перехода
Параметр матрицы формата : Default (MPEG)
Идентификатор кодека : XVID
Идентификатор кодека/Подсказка : XviD
Продолжительность : 1 ч. 15 м.
Битрейт : 1558 Кбит/сек
Ширина : 672 пикс.
Высота : 400 пикс.
Соотношение сторон : 1,680
Частота кадров : 25,000 кадр/сек
Цветовое пространство : YUV
Подвыборка цветности : 4:2:0
Битовая глубина : 8 бит
Тип развёртки : Прогрессивная
Метод сжатия : С потерями
Бит/(Пиксели*Кадры) : 0.232
Размер потока : 841 Мбайт (89%)
Библиотека кодирования : XviD 1.2.1 (UTC 2008-12-04)
Аудио
Идентификатор : 1
Формат : AC-3
Формат/Информация : Audio Coding 3
Профиль формата : Dolby Digital
Расширение режима : CM (complete main)
Идентификатор кодека : 2000
Продолжительность : 1 ч. 15 м.
Вид битрейта : Постоянный
Битрейт : 192 Кбит/сек
Канал(ы) : 2 канала(ов)
Расположение каналов : Front: L R
Частота : 48,0 КГц
Битовая глубина : 16 бит
Метод сжатия : С потерями
Размер потока : 104 Мбайт (11%)
Выравнивание : Разделение по промежуткам
Продолжительность промежутка : 40 мс. (1,00 видеокадр)
Время предзагрузки промежутка : 500 ms

Фрагмент субтитров

300
00:26:09,280 --> 00:26:10,725
Не ради меня?
301
00:26:22,960 --> 00:26:24,610
Кто этот мальчик?
302
00:26:25,120 --> 00:26:26,929
Брат, он умер уже давно.
303
00:26:28,000 --> 00:26:30,002
Как много вас, Тома Граве!
304
00:26:30,200 --> 00:26:31,406
Все меньше и меньше.
305
00:26:47,200 --> 00:26:48,531
Как твоя роль?
306
00:26:49,000 --> 00:26:50,684
Сложная, но того стоит.
307
00:26:50,920 --> 00:26:52,570
Когда премьера?
308
00:26:52,840 --> 00:26:54,001
Через три дня.
309
00:26:54,600 --> 00:26:55,761
Как себя чувствуешь?
310
00:26:56,080 --> 00:26:57,127
Будто побили.
311
00:26:58,680 --> 00:26:59,966
А Флоранс?
312
00:27:00,560 --> 00:27:01,721
Как солдат.
313
00:27:02,760 --> 00:27:03,488
А Жером?
314
00:27:03,640 --> 00:27:04,607
Хорошо.
315
00:27:06,560 --> 00:27:08,449
Уверена, что со мной все кончено?
316
00:27:09,160 --> 00:27:10,730
Абсолютно.
317
00:27:10,880 --> 00:27:12,644
Думаешь, что всегда будешь с Жеромом?
318
00:27:16,320 --> 00:27:17,731
Невероятно.
319
00:27:19,280 --> 00:27:22,409
Тома, ты вернешь мне 2000 франков,
которые я тебе одолжила?
320
00:27:23,840 --> 00:27:25,763
Я на мели.

Скриншот c названием фильма

Скриншоты

[teatrix.ru].t5915.torrent 
Торрент: Зарегистрирован [ 2015-10-10 09:49 ] · 04D8C1279C48C893578394D465E6DDE7889D4CD4

Скачать .torrent

Скачать

19 KB

Статус: проверено
Скачан: 0 раз
Размер: 950 MB
terms.php



Быстрый ответ

Имя:

      
Для отправки сообщений необходимо включить JavaScript
Показать сообщения:    

Текущее время: 04-Дек 19:16

Часовой пояс: UTC + 3


Вы можете начинать темы
Вы можете отвечать на сообщения
Вы не можете редактировать свои сообщения
Вы не можете удалять свои сообщения
Вы не можете голосовать в опросах
Вы не можете прикреплять файлы к сообщениям
Вы можете скачивать файлы