Конец насилия / The end of violence (Вим Вендерс / Wim Wenders) [1997, Франция, Германия, США, триллер, драма, HDRip] MVO


 

[Цитировать]

Конец насилия / The end of violence Страна: Франция, Германия, США
Жанр: триллер, драма
Год выпуска: 1997
Продолжительность: 02:01:58
Перевод: Профессиональный (многоголосый закадровый)
Cубтитры: нет
Режиссер: Вим Вендерс / Wim Wenders
В ролях: Трэйси Линд, Розалинд Чао, Билл Пуллман, Энди МакДауэлл, К. Тодд Фриман, Гэбриел Бирн, Крис Дуридас, Прюитт Тейлор Винс, Джон Дил, Соледад Ст. Хилейр
Описание: Майк Макс — расчетливый продюсер голливудских кинохитов. Он манипулирует страстью людей к жестокости, забыв о чувствах своей жены. Тем временем, за привычным миром насилия наблюдает ученый Рэй Беринг. Его тайный проект скрытого наблюдения за городом призван резко сократить уровень преступности, но в мегаполисе, который дышит насилием, жизнь в любой момент может принять непредсказуемый оборот.
Рэй не подозревает, что уже скоро его детище подвергнет Майка и его самого огромному риску, приведя в действие цепную реакцию странных и, на первый взгляд, несвязанных друг с другом событий…

Качество видео: HDRip
Формат видео: AVI
Видео кодек: XviD
Аудио кодек: AC3
Видео: 720x304 (2.37:1), 23.976 fps, XviD build 73 ~1208 kbps avg, 0.23 bit/pixel
Аудио: 48 kHz, AC3 Dolby Digital, 3/2 (L,C,R,l,r) + LFE ch, ~384 kbps

Доп.инфо

за многоголоску спасибо Tanitra84,
Одноголосый закадровый "Неизвестный" за него спасибо guginot и DERR_84

MediaInfo

Полное имя : Конец насилия.avi
Формат : AVI
Формат/Информация : Audio Video Interleave
Размер файла : 1,36 Гбайт
Продолжительность : 2 ч. 1 м.
Общий поток : 1602 Кбит/сек
Программа кодирования : VirtualDubMod 1.5.10.2 (build 2540/release)
Библиотека кодирования : VirtualDubMod build 2540/release
Видео
Идентификатор : 0
Формат : MPEG-4 Visual
Профиль формата : Advanced Simple@L5
Параметр BVOP формата : 1
Параметр QPel формата : Нет
Параметр GMC формата : Без точки перехода
Параметр матрицы формата : Выборочная
Идентификатор кодека : XVID
Идентификатор кодека/Подсказка : XviD
Продолжительность : 2 ч. 1 м.
Битрейт : 1209 Кбит/сек
Ширина : 720 пикселей
Высота : 304 пикселя
Соотношение сторон : 2,35:1
Частота кадров : 23,976 кадра/сек
Цветовое пространство : YUV
Субдискретизация насыщенности : 4:2:0
Битовая глубина : 8 бит
Тип развёртки : Прогрессивная
Метод сжатия : С потерями
Бит/(Пиксели*Кадры) : 0.230
Размер потока : 1,03 Гбайт (75%)
Библиотека кодирования : XviD 73
Аудио
Идентификатор : 1
Формат : AC-3
Формат/Информация : Audio Coding 3
Расширение режима : CM (complete main)
Параметр Endianness формата : Big
Идентификатор кодека : 2000
Продолжительность : 2 ч. 1 м.
Вид битрейта : Постоянный
Битрейт : 384 Кбит/сек
Каналы : 6 каналов
Расположение каналов : Front: L C R, Side: L R, LFE
Частота : 48,0 КГц
Битовая глубина : 16 бит
Метод сжатия : С потерями
Размер потока : 335 Мбайт (24%)
Выравнивание : Разделение по промежуткам
Продолжительность промежутка : 42 мс. (1,00 видеокадр)
Время предзагрузки промежутка : 500 мс.

Скриншоты




Показать сообщения:    

Текущее время: 11-Дек 14:53

Часовой пояс: UTC + 3


Вы не можете начинать темы
Вы не можете отвечать на сообщения
Вы не можете редактировать свои сообщения
Вы не можете удалять свои сообщения
Вы не можете голосовать в опросах
Вы не можете прикреплять файлы к сообщениям
Вы не можете скачивать файлы