Доказательство / Proof (Джослин Мурхаус / Jocelyn Moorhouse) [1991 г., Австралия, драма, BDRip] DVO (Велес) + Original Eng + Sub (Rus, Eng)


 

[Цитировать]

-Доказательство / Proof«Фотографии не лгут» Страна: Австралия
Студия: Film Victoria, House & Moorhouse Films, The Australian Film Commission
Жанр: Драма
Год выпуска: 1991
Продолжительность: 01:29:55-Перевод : Профессиональный (двухголосый, закадровый) Велес [CP Digital]
Оригинальная аудиодорожка: английская
Cубтитры: русские, английские
Режиссер: Джослин Мурхаус / Jocelyn Moorhouse
В ролях: Рассел Кроу, Хьюго Уивинг, Женевьев Пико, Хезер Митчелл, Джеффри Уокер, Дэниэл Поллок, Фрэнки Дж. Холден, Фрэнк Галлахер, Саския Пост, Белинда Дэвей, Клифф Эллен, Таня Арен, Дарко Тускан
Описание: Герой фильма Мартин слеп от рождения, он считает, что его никто не любит, даже мать тяготится им и хочет избавиться от него. Ему кажется, что все лгут ему, описывая окружающий мир. И тогда Мартин находит свой оригинальный способ проверить правдивость зрячих людей — он начинает заниматься фотографией.-
Сэмпл: скачать-Релиз от -
Автор рипа: Elheym
Качество: BDRip (источник: NovaLan / Blu-ray Remux [Proof.1991.BDRemux.1080p.NovaLan] / 1080p)
Контейнер: AVI
Видео: 704x384 (1.83:1), 23.976 fps, XviD build 65 ~1918 kbps avg, 0.30 bit/pixel
Аудио #1: Русский: AC3, 5.1, 48 kHz, ~384 Кбит/с | Профессиональный (двухголосый, закадровый) Велес |
Аудио #2: Английский: AC3, 2.0, 48 kHz, ~192 Кбит/с | Оригинал |
Субтитры: русские (полные), английские (полные)
Размер: 1486.70 Mb (1/3 DVD)

MediaInfo

Полное имя : Dokazatelstvo.1991.RUS.BDRip.XviD.AC3.-HQCLUB.avi
Формат : AVI
Формат/Информация : Audio Video Interleave
Размер файла : 1,45 Гбайт
Продолжительность : 1 ч. 29 м.
Общий поток : 2311 Кбит/сек
Название фильма : Доказательство / Proof (1991) BDRip
Режиссёр : Elheym
Программа кодирования : VirtualDubMod 1.5.10.2 (build 2540/release)
Правообладатель : HQCLUB
Примечание : 29.03.2015
Видео
Идентификатор : 0
Формат : MPEG-4 Visual
Профиль формата : Advanced Simple@L5
Параметр BVOP формата : 1
Параметр QPel формата : Нет
Параметр GMC формата : Без точки перехода
Параметр матрицы формата : Выборочная
Идентификатор кодека : XVID
Идентификатор кодека/Подсказка : XviD
Продолжительность : 1 ч. 29 м.
Битрейт : 1918 Кбит/сек
Ширина : 704 пикселя
Высота : 384 пикселя
Соотношение сторон : 1,85:1
Частота кадров : 23,976 кадра/сек
Цветовое пространство : YUV
Субдискретизация насыщенности : 4:2:0
Битовая глубина : 8 бит
Тип развёртки : Прогрессивная
Метод сжатия : С потерями
Бит/(Пиксели*Кадры) : 0.296
Размер потока : 1,20 Гбайт (83%)
Библиотека кодирования : XviD 65
Аудио
Идентификатор : 1
Формат : AC-3
Формат/Информация : Audio Coding 3
Расширение режима : CM (complete main)
Параметр Endianness формата : Big
Идентификатор кодека : 2000
Продолжительность : 1 ч. 29 м.
Вид битрейта : Постоянный
Битрейт : 384 Кбит/сек
Каналы : 6 каналов
Расположение каналов : Front: L C R, Side: L R, LFE
Частота : 48,0 КГц
Битовая глубина : 16 бит
Метод сжатия : С потерями
Размер потока : 247 Мбайт (17%)
Выравнивание : Разделение по промежуткам
Продолжительность промежутка : 42 мс. (1,00 видеокадр)
Время предзагрузки промежутка : 500 мс.

Скриншоты

Спасибо П.Емельян за предоставленный перевод.



Показать сообщения:    

Текущее время: 11-Дек 12:57

Часовой пояс: UTC + 3


Вы не можете начинать темы
Вы не можете отвечать на сообщения
Вы не можете редактировать свои сообщения
Вы не можете удалять свои сообщения
Вы не можете голосовать в опросах
Вы не можете прикреплять файлы к сообщениям
Вы не можете скачивать файлы