Блокада / Осада / Matzor (Джильберто Тофано / Gilberto Tofano) [1969, Израиль, драма, TVRip] + Sub Rus + Original Heb


Статистика раздачи [Обновить пиров]
Размер:  1.11 GB   |    Зарегистрирован:  1 год 2 месяца   |    Скачан:  0 раз

Полного источника не было: 6 месяцев 27 дней

 
   
 
 
 

[Цитировать]

Блокада / Осада / Matzor
Страна: Израиль
Жанр: драма
Год выпуска: 1969
Продолжительность: 01:31:15
Перевод: Субтитры
Cубтитры: русские
Оригинальная аудиодорожка: иврит
Режиссер: Джильберто Тофано / Gilberto Tofano
В ролях: Гила Альмагор, Дан Бен Амоц, Йорам Гаон, Эран Агмон, Яэль Авив
Описание: Муж Тамар погиб во время Шестидневной войны. Она пытается оправиться от потери, в то время как перед друзьями и близкими она должна разыгрывать роль "героической вдовы". Тамар желает вырваться из этих пут, но с ее окружением сделать это не легко.
Доп. информация: Участник Каннского кинофестиваля 1969.
Огромное спасибо abraka за предоставленную запись.
Сэмпл: http://multi-up.com/1040836
Качество видео: TVRip
Формат видео: AVI
Видео: DivX 5 704x432 25.00fps
Аудио: MPEG Audio Layer 3 48000Hz stereo 128kbps
Формат субтитров: hardsub (неотключаемые)

MediaInfo

General
Complete name : D:\downloads\OSADA.avi
Format : AVI
Format/Info : Audio Video Interleave
File size : 1.11 GiB
Duration : 1h 31mn
Overall bit rate : 1 737 Kbps
Video
ID : 0
Format : MPEG-4 Visual
Format settings, BVOP : 1
Format settings, QPel : No
Format settings, GMC : No warppoints
Format settings, Matrix : Default (H.263)
Codec ID : DX50
Codec ID/Hint : DivX 5
Duration : 1h 31mn
Bit rate : 1 600 Kbps
Width : 704 pixels
Height : 432 pixels
Display aspect ratio : 1.630
Frame rate : 25.000 fps
Color space : YUV
Chroma subsampling : 4:2:0
Bit depth : 8 bits
Scan type : Progressive
Compression mode : Lossy
Bits/(Pixel*Frame) : 0.210
Stream size : 1.02 GiB (92%)
Writing library : DivX 6.8.5 (UTC 2009-08-20)
Audio
ID : 1
Format : MPEG Audio
Format version : Version 1
Format profile : Layer 3
Mode : Joint stereo
Mode extension : MS Stereo
Codec ID : 55
Codec ID/Hint : MP3
Duration : 1h 31mn
Bit rate mode : Constant
Bit rate : 128 Kbps
Channel(s) : 2 channels
Sampling rate : 48.0 KHz
Compression mode : Lossy
Stream size : 83.6 MiB (7%)
Alignment : Split accross interleaves
Interleave, duration : 40 ms (1.00 video frame)
Interleave, preload duration : 500 ms

Скриншоты





[teatrix.ru].t5922.torrent 
Торрент: Зарегистрирован [ 2015-10-10 09:49 ] · 5394896C24A734DEA6FEB9221CF5C123B58238D8

Скачать .torrent

Скачать

12 KB

Статус: проверено
Скачан: 0 раз
Размер: 1.11 GB
terms.php



Быстрый ответ

Имя:

      
Для отправки сообщений необходимо включить JavaScript
Показать сообщения:    

Текущее время: 11-Дек 07:13

Часовой пояс: UTC + 3


Вы можете начинать темы
Вы можете отвечать на сообщения
Вы не можете редактировать свои сообщения
Вы не можете удалять свои сообщения
Вы не можете голосовать в опросах
Вы не можете прикреплять файлы к сообщениям
Вы можете скачивать файлы