Ритм большого города / Ударный Нью-Йоркский фильм / New York Beat Movie / Downtown 81 (Эдо Бертоглио / Edo Bertoglio) [1981, США, драма, биография, VHSRip] + Sub Rus + Original Eng


Статистика раздачи [Обновить пиров]
Размер:  700 MB   |    Зарегистрирован:  1 год 1 месяц   |    Скачан:  2 раза
Сидов:  1  [  43 KB/s  ]   Подробная статистика пиров
 
   
 
 
 

[Цитировать]

Ритм большого города / Ударный Нью-Йоркский фильм / New York Beat Movie / Downtown 81
Страна: США
Жанр: драма, биография
Год выпуска: 1981
Продолжительность: 01:11:04
Перевод: Субтитры
Cубтитры: русские
Оригинальная аудиодорожка: английский
Режиссер: Эдо Бертоглио / Edo Bertoglio
В ролях: Жан-Мишель Баския, Сол Уильямс, Ричард Вейганд, Анна Шредер, Дебора Харри, Эстер Балинт, Тед Бафалукос, Роберта Бэйли, Джон Лури, Байрон Боуи, Стивен Браун, Дайан Брилл, Джеймс Чэнс, Фэб Файв Фредди, Tuxedomoon, DNA, The Plastics, Kid Creole & The Coconuts и др.
Описание: Фильм описывает один день из жизни молодого художника Жана-Мишеля Баския, которому нужно раздобыть денег, чтобы скорее решить жилищный вопрос, пока его не выселили. Он блуждает по центру города с картиной наперевес, желая её продать. По пути он сталкивается со своими друзьями и, наконец, продаёт картину некоей богатой женщине.
Остаток дня он забывает о проблеме выселения и транжирит деньги на вечеринках, перемещаясь от клуба к клубу в поисках одной красивой девушки, которую встретил ранее и с которой планирует провести ночь. Ведь, у него ещё есть место для ночлега…
Доп. информация: Готовая к выходу картина, срежиссированная Эдо Бертоглио по сценарию Гленна О`Брайэна, к середине 80-х так и осталась невыпущенной лежать на полке из-за финансовых проблем. И, только в 99-м году (уже после смерти Баския), когда права на ленту были восстановлены, продюсерам всё же удалось воскресить фильм и, более того, показать в Каннах годом позже.
Downtown 81 – без сомнения является редким реалистичным снимком Манхэттена в период пост-панка начала 80-х годов.

Сэмпл: http://multi-up.com/1040792
Качество видео: VHSRip
Формат видео: AVI
Видео: XviD; 608x336 (16:9); 29,970 fps; 1234 Kbps
Аудио: MP3; 48.0 KHz; 128 Kbps; 2 ch
Формат субтитров: softsub (SRT)

MediaInfo

Общее
Полное имя : /Users/fpaulio/Movies/Downtown 81/downtown81.avi
Формат : AVI
Формат/Информация : Audio Video Interleave
Размер файла : 699 Мбайт
Продолжительность : 1 ч. 11 м.
Общий поток : 1376 Кбит/сек
Видео
Идентификатор : 0
Формат : MPEG-4 Visual
Параметр BVOP формата : Да
Параметр QPel формата : Нет
Параметр GMC формата : Без точки перехода
Параметр матрицы формата : Default (H.263)
Идентификатор кодека : XVID
Идентификатор кодека/Подсказка : XviD
Продолжительность : 1 ч. 11 м.
Битрейт : 1234 Кбит/сек
Ширина : 608 пикселей
Высота : 336 пикселей
Соотношение сторон : 16:9
Частота кадров : 29,970 кадров/сек
Цветовое пространство : YUV
Субдискретизация насыщенности : 4:2:0
Битовая глубина : 8 бит
Тип развёртки : Прогрессивная
Метод сжатия : С потерями
Бит/(Пиксели*Кадры) : 0.202
Размер потока : 627 Мбайт (90%)
Библиотека кодирования : DivX 5.0.1 (UTC 2002-04-09)
Аудио
Идентификатор : 1
Формат : MPEG Audio
Версия формата : Version 1
Профиль формата : Layer 3
Режим : Joint stereo
Расширение режима : MS Stereo
Идентификатор кодека : 55
Идентификатор кодека/Подсказка : MP3
Продолжительность : 11 с.
Вид битрейта : Постоянный
Битрейт : 128 Кбит/сек
Каналы : 2 канала
Частота : 48,0 КГц
Метод сжатия : С потерями
Размер потока : 65,1 Мбайт (9%)
Выравнивание : Соединение по промежуткам
Продолжительность промежутка : 24 мс. (0,72 видеокадр)

Скриншот c названием фильма

Скриншоты

Пример субтитров

3
00:00:43,300 --> 00:00:46,300
Сказки могут стать реальностью.
4
00:00:47,100 --> 00:00:49,100
Когда-нибудь это может случиться и с тобой.
5
00:00:50,200 --> 00:00:52,200
Особенно, если ты молод и живешь в Нью-Йорке.
6
00:00:53,100 --> 00:00:55,100
Но когда-то это было дикое место,
7
00:00:57,000 --> 00:00:59,000
где каждый парень, успевший выхватить пистолет,
8
00:00:59,400 --> 00:01:01,400
выходил на улицы попробовать свои силы.
9
00:01:02,800 --> 00:01:04,800
Как бы то ни было, история, которую ты сейчас увидишь, не правда.
10
00:01:06,600 --> 00:01:08,600
Но и не ложь.
11
00:01:09,300 --> 00:01:14,000
Любое сходство с персонажами, событиями и реальностью –
12
00:01:14,500 --> 00:01:16,500
плод фантазии.
13
00:01:24,200 --> 00:01:26,200
Я проснулся.
14
00:01:26,700 --> 00:01:28,700
Спал ли я?
15
00:01:28,701 --> 00:01:30,701
Наверное, да.
16
00:01:31,000 --> 00:01:33,000
Я попытался вспомнить, но сон ускользнул от меня.
[teatrix.ru].t5923.torrent 
Торрент: Зарегистрирован [ 2015-10-10 09:49 ] · 90BA6F0EC198F3BF7A8C54B831A00D75C919D695

Скачать .torrent

Скачать

14 KB

Статус: проверено
Скачан: 2 раз
Размер: 700 MB
terms.php



Быстрый ответ

Имя:

      
Для отправки сообщений необходимо включить JavaScript
Показать сообщения:    

Текущее время: 05-Дек 17:35

Часовой пояс: UTC + 3


Вы можете начинать темы
Вы можете отвечать на сообщения
Вы не можете редактировать свои сообщения
Вы не можете удалять свои сообщения
Вы не можете голосовать в опросах
Вы не можете прикреплять файлы к сообщениям
Вы можете скачивать файлы