Девушка возвращается одна ночью домой / A Girl Walks Home Alone at Night (Ана Лили Амирпур / Ana Lily Amirpour) [2014, США, ужасы, триллер, драма, WEB-DLRip] Sub Rus + Original Per


Статистика раздачи [Обновить пиров]
Размер:  1.41 GB   |    Зарегистрирован:  1 год 1 месяц   |    Скачан:  0 раз

Полного источника не было: Никогда

 
   
 
 
 

[Цитировать]

Девушка возвращается одна ночью домой
A Girl Walks Home Alone at Night

Страна: США
Жанр: ужасы, триллер, драма
Год выпуска: 2014
Продолжительность: 01:40:39
Перевод: Субтитры (Chillerama)
Cубтитры: русские
Оригинальная аудиодорожка: персидский
Режиссер: Ана Лили Амирпур / Ana Lily Amirpour
В ролях: Шейла Ванд, Араш Маранди, Маршалл Манеш, Можан Марно, Амин Наземзадех, Роум Шаданлу, Реза Сиксо Сафаи, Рэй Харатиан, Педж Вахдат и др.
Описание: Вампирша в чадре медленно катится на скейтборде по ночным улицам Гиблого Города, где живут не очень хорошие люди — наркоманы, воры и проститутки. Но сейчас тихо и никого нет. Горят фонари. С вечеринки возвращается парень в костюме графа Дракулы и говорит: «Я — граф Дракула». Но вампирша, убившая накануне сутенера, не тронет Дракулу, не прокусит ему шею, а посадит на скейт и повезет домой. Так родится союз двух одиночеств, затерянных бог весть где и существующих бог весть как.
Sample

Работа с видео: whip93
Качество видео: WEB-DLRip (WEB-DL 720p) - BDRip 1080p
Формат видео: AVI
Видео: Xvid 720x304 23.976fps 1609kbps
Аудио: Dolby AC3 48000Hz 6ch 384kbps
Формат субтитров: softsub (SRT)

Фрагмент субтитров

1
00:03:30,500 --> 00:03:37,800
"Девушка ночью гуляет одна"
2
00:03:40,410 --> 00:03:42,320
Дашь мне немного денег?
3
00:03:45,660 --> 00:03:47,120
Я спросил, дашь мне немного денег?
4
00:03:47,250 --> 00:03:50,500
Пацан, сколько раз мне тебе повторять?
У меня нет денег.
5
00:03:53,500 --> 00:03:55,630
С такой-то машиной?
6
00:03:55,750 --> 00:03:58,380
Ты хоть представляешь, сколько я работал
для того, чтобы купить ее?
7
00:03:59,200 --> 00:04:02,120
- Чья это кошка?
- Моя.
8
00:04:04,120 --> 00:04:06,200
2191 день.
9
00:04:35,870 --> 00:04:38,280
Дорогие семейные дамы,
10
00:04:39,620 --> 00:04:41,990
вы ведете хозяйство,
11
00:04:42,370 --> 00:04:44,160
вы заботитесь о своих детях,
12
00:04:45,040 --> 00:04:46,630
своих мужьях.
13
00:04:47,790 --> 00:04:51,250
А ваши мужья приносят в дом деньги.
14
00:04:52,580 --> 00:04:54,130
Поздравляю.
15
00:04:54,910 --> 00:04:56,700
Но будьте готовы.
16
00:04:56,830 --> 00:04:59,880
Однажды все изменится.
17
00:05:00,000 --> 00:05:02,290
Ваш муж уйдет от вас,
18
00:05:02,410 --> 00:05:04,530
найдет себе новую жену.
19
00:05:04,660 --> 00:05:07,780
Другую женщину, помоложе.
20
00:05:07,910 --> 00:05:09,450
Или, возможно,

MediaInfo

General
Complete name : D:\Фильмы\A Girl Waks Home Alone at Night 2014 WEB-DLRip whip93\A.Girl.Walks.Home.Alone.at.Night.2014.WEB-DLRip.whip93.avi
Format : AVI
Format/Info : Audio Video Interleave
File size : 1.41 GiB
Duration : 1h 40mn
Overall bit rate : 2 002 Kbps
Writing application : VirtualDubMod 1.5.10.3 | www.virtualdub-fr.org || (build 2550/release)
Writing library : VirtualDubMod build 2550/release
Video
ID : 0
Format : MPEG-4 Visual
Format profile : Advanced Simple@L5
Format settings, BVOP : 1
Format settings, QPel : No
Format settings, GMC : No warppoints
Format settings, Matrix : Default (MPEG)
Codec ID : XVID
Codec ID/Hint : XviD
Duration : 1h 40mn
Bit rate : 1 609 Kbps
Width : 720 pixels
Height : 304 pixels
Display aspect ratio : 2.35:1
Frame rate : 23.976 fps
Color space : YUV
Chroma subsampling : 4:2:0
Bit depth : 8 bits
Scan type : Progressive
Compression mode : Lossy
Bits/(Pixel*Frame) : 0.307
Stream size : 1.13 GiB (80%)
Writing library : XviD 1.2.1 (UTC 2008-12-04)
Audio
ID : 1
Format : AC-3
Format/Info : Audio Coding 3
Mode extension : CM (complete main)
Format settings, Endianness : Big
Codec ID : 2000
Duration : 1h 40mn
Bit rate mode : Constant
Bit rate : 384 Kbps
Channel(s) : 6 channels
Channel positions : Front: L C R, Side: L R, LFE
Sampling rate : 48.0 KHz
Bit depth : 16 bits
Compression mode : Lossy
Stream size : 276 MiB (19%)
Alignment : Split accross interleaves
Interleave, duration : 42 ms (1.00 video frame)
Interleave, preload duration : 500 ms

Скриншоты

[teatrix.ru].t5926.torrent 
Торрент: Зарегистрирован [ 2015-10-10 09:49 ] · 8CA9EC1BEF7D82CBB68DF06DF909B9617AE78374

Скачать .torrent

Скачать

15 KB

Статус: проверено
Скачан: 0 раз
Размер: 1.41 GB
terms.php



Быстрый ответ

Имя:

      
Для отправки сообщений необходимо включить JavaScript
Показать сообщения:    

Текущее время: 09-Дек 20:32

Часовой пояс: UTC + 3


Вы можете начинать темы
Вы можете отвечать на сообщения
Вы не можете редактировать свои сообщения
Вы не можете удалять свои сообщения
Вы не можете голосовать в опросах
Вы не можете прикреплять файлы к сообщениям
Вы можете скачивать файлы