Девушка возвращается одна ночью домой / A Girl Walks Home Alone at Night (Ана Лили Амирпур / Ana Lily Amirpour) [2014, Иран, США, триллер, ужас, HDRip] DVO (2D) + Original Pers


 

[Цитировать]

Девушка возвращается одна ночью домой / A Girl Walks Home Alone at Night
Страна: Иран, США
Жанр: триллер, ужас
Год выпуска: 2014
Продолжительность: 01:40:39
Перевод: Любительский (двухголосый закадровый) 2D
Cубтитры: нет
Оригинальная аудиодорожка: персидский
Режиссер: Ана Лили Амирпур / Ana Lily Amirpour
В ролях: Шейла Ванд, араш Маранди, Маршалл Манеш Мозхан Марно, Доминик Раинс, Роме Шаданлу, Милад Эгхбали, Реза Сихо Сафаи
Описание: В иранском городе-призраке, месте, пахнущем смертьюи и одиночеством, горожане не догадываются, что их преследует одинокий вампир, пока он не предстает перед ними...

Доп. информация:
Перевод: Куценко
Сэмпл: http://multi-up.com
Качество видео: HDRip
Формат видео: AVI
Видео: Xvid 720x304 23.98fps 1685Kbps
Аудио 1: MPEG Audio Layer 3 48000Hz stereo 192Kbps [русский]
Аудио 2: AC3 48000Hz stereo 192Kbps [персидский]

MediaInfo

General
Complete name : D:\TORRENTS\Девушка возвращается одна ночью домой.avi
Format : AVI
Format/Info : Audio Video Interleave
File size : 1.46 GiB
Duration : 1h 40mn
Overall bit rate : 2 083 Kbps
Video
ID : 0
Format : MPEG-4 Visual
Format profile : Advanced Simple@L5
Format settings, BVOP : 1
Format settings, QPel : No
Format settings, GMC : No warppoints
Format settings, Matrix : Custom
Codec ID : XVID
Codec ID/Hint : XviD
Duration : 1h 40mn
Bit rate : 1 685 Kbps
Width : 720 pixels
Height : 304 pixels
Display aspect ratio : 2.35:1
Frame rate : 23.976 fps
Color space : YUV
Chroma subsampling : 4:2:0
Bit depth : 8 bits
Scan type : Progressive
Compression mode : Lossy
Bits/(Pixel*Frame) : 0.321
Stream size : 1.18 GiB (81%)
Writing library : XviD 73
Audio #1
ID : 1
Format : MPEG Audio
Format version : Version 1
Format profile : Layer 3
Mode : Joint stereo
Mode extension : MS Stereo
Codec ID : 55
Codec ID/Hint : MP3
Duration : 1h 40mn
Source duration : 1h 40mn
Bit rate mode : Constant
Bit rate : 192 Kbps
Channel(s) : 2 channels
Sampling rate : 48.0 KHz
Compression mode : Lossy
Stream size : 138 MiB (9%)
Alignment : Aligned on interleaves
Interleave, duration : 42 ms (1.00 video frame)
Writing library : LAME3.99r
Encoding settings : -m j -V 4 -q 3 -lowpass 18.6 -b 192
Audio #2
ID : 2
Format : AC-3
Format/Info : Audio Coding 3
Mode extension : CM (complete main)
Format settings, Endianness : Big
Codec ID : 2000
Duration : 1h 40mn
Source duration : 1h 40mn
Bit rate mode : Constant
Bit rate : 192 Kbps
Channel(s) : 2 channels
Channel positions : Front: L R
Sampling rate : 48.0 KHz
Bit depth : 16 bits
Compression mode : Lossy
Stream size : 138 MiB (9%)
Alignment : Aligned on interleaves
Interleave, duration : 42 ms (1.00 video frame)

Скриншот c названием фильма

Скриншоты




Показать сообщения:    

Текущее время: 06-Дек 13:13

Часовой пояс: UTC + 3


Вы не можете начинать темы
Вы не можете отвечать на сообщения
Вы не можете редактировать свои сообщения
Вы не можете удалять свои сообщения
Вы не можете голосовать в опросах
Вы не можете прикреплять файлы к сообщениям
Вы не можете скачивать файлы