Все будет хорошо / Торэ танцует / Ничего плохого случиться не может / Tore Tanzt / Nothing Bad Can Happen (К. Геббе / K. Gebbe) [2013, Германия, драма, триллер, DVDRip-AVC] MVO


Статистика раздачи [Обновить пиров]
Размер:  744 MB   |    Зарегистрирован:  1 год 2 месяца   |    Скачан:  0 раз

Полного источника не было: Никогда

 
   
 
 
 

[Цитировать]

Торэ танцует / Ничего плохого случиться не может / Tore Tanzt / Nothing Bad Can Happen
Страна: Германия
Жанр: Драма, Триллер
Год выпуска: 2013
Продолжительность: 01:47:52
Перевод: Любительский (многоголосый закадровый), studio F666R
Cубтитры: нет
Режиссер: К. Геббе / K. Gebbe
В ролях: Julius Feldmeier, Sascha Alexander Gersak, Annika Kuhl
Описание: "Торэ принадлежит к христианскому панк-движению Jesus FreakS, бунтующему против религиозных порядков, но следующему учению Иисуса о любви. Однажды Торэ чудесным образом помогает завести заглохшую машину и знакомится с ее хозяином — Бенно. Он раскидывает палатку в саду у нового друга и становится практически членом его семьи. Но Бенно не может удержаться от искушения поколебать убеждения Торэ и сбить его с истинного пути..." Кинопоиск
Доп. информация: От себя могу сказать, что кино жизненное, очень тяжёлое - и по сюжету, и по атмосфере. оставляет осадок.
Сцены насилия, секса, нецензурная лексика.
Спасибо Chick_Guevara за хороший перевод.
Большое спасибо за помощь - Глебу Россу и Лее Лейман за голоса.
Сэмпл: http://sendfile.su/1100970
Качество видео: DVDRip
Формат видео: MKV
Видео: MPEG4 Video (H264) 720x308 23.976fps [V: h264 high L3.1, yuv420p, 720x308 [default]], 689 Kbps
Аудио: MP3 48000Hz stereo 256kbps

MediaInfo

General
Unique ID : 272016439472905035816330592573925845770 (0xCCA475EAD76B29FB70E131926DDB6B0A)
Complete name : E:\_Downloads\Tore Tanzt [2013, Nothing Bad Can Happen, RUS MVO].mkv
Format : Matroska
Format version : Version 2
File size : 744 MiB
Duration : 1h 47mn
Overall bit rate : 964 Kbps
Writing application : Lavf54.63.104
Writing library : Lavf54.63.104
Video
ID : 1
Format : AVC
Format/Info : Advanced Video Codec
Format profile : High@L3.1
Format settings, CABAC : Yes
Format settings, ReFrames : 5 frames
Codec ID : V_MPEG4/ISO/AVC
Duration : 1h 47mn
Bit rate : 689 Kbps
Width : 720 pixels
Height : 308 pixels
Display aspect ratio : 2.35:1
Frame rate mode : Constant
Frame rate : 23.976 fps
Color space : YUV
Chroma subsampling : 4:2:0
Bit depth : 8 bits
Scan type : Progressive
Bits/(Pixel*Frame) : 0.130
Stream size : 532 MiB (71%)
Writing library : x264 core 142 r2479 dd79a61
Encoding settings : cabac=1 / ref=5 / deblock=1:0:0 / analyse=0x3:0x113 / me=umh / subme=8 / psy=1 / psy_rd=1.00:0.00 / mixed_ref=1 / me_range=16 / chroma_me=1 / trellis=1 / 8x8dct=1 / cqm=0 / deadzone=21,11 / fast_pskip=1 / chroma_qp_offset=-2 / threads=12 / lookahead_threads=2 / sliced_threads=0 / nr=0 / decimate=1 / interlaced=0 / bluray_compat=0 / constrained_intra=0 / bframes=3 / b_pyramid=2 / b_adapt=2 / b_bias=0 / direct=3 / weightb=1 / open_gop=0 / weightp=2 / keyint=240 / keyint_min=23 / scenecut=40 / intra_refresh=0 / rc_lookahead=50 / rc=crf / mbtree=1 / crf=19.0 / qcomp=0.60 / qpmin=10 / qpmax=51 / qpstep=4 / vbv_maxrate=17500 / vbv_bufsize=17500 / crf_max=0.0 / nal_hrd=none / filler=0 / ip_ratio=1.40 / aq=1:1.00
Default : Yes
Forced : No
Audio
ID : 2
Format : MPEG Audio
Format version : Version 1
Format profile : Layer 3
Mode : Joint stereo
Codec ID : A_MPEG/L3
Codec ID/Hint : MP3
Duration : 1h 47mn
Bit rate mode : Constant
Bit rate : 256 Kbps
Channel(s) : 2 channels
Sampling rate : 48.0 KHz
Compression mode : Lossy
Delay relative to video : 1mn 5s
Stream size : 198 MiB (27%)
Default : Yes
Forced : No

Скриншот c названием фильма

Скриншоты




[teatrix.ru].t5928.torrent 
Торрент: Зарегистрирован [ 2015-10-10 09:49 ] · 8A61913F813B63B53CB4FC13085588DEA245AD01

Скачать .torrent

Скачать

15 KB

Статус: проверено
Скачан: 0 раз
Размер: 744 MB
terms.php



Быстрый ответ

Имя:

      
Для отправки сообщений необходимо включить JavaScript
Показать сообщения:    

Текущее время: 11-Дек 11:06

Часовой пояс: UTC + 3


Вы можете начинать темы
Вы можете отвечать на сообщения
Вы не можете редактировать свои сообщения
Вы не можете удалять свои сообщения
Вы не можете голосовать в опросах
Вы не можете прикреплять файлы к сообщениям
Вы можете скачивать файлы