Алоиза / Aloïse / Aloise (Лилиан де Кермадек / Lilian de Kermadec) [1975, Франция, драма, DVDRip] VO (Виталий Гирон) + Sub Rus (Ольга Мисири aka Lisok) + Original Fre


Статистика раздачи [Обновить пиров]
Размер:  1.52 GB   |    Зарегистрирован:  1 год 1 месяц   |    Скачан:  0 раз

Полного источника не было: Никогда

 
   
 
 
 

[Цитировать]

Алоиза / Aloïse / Aloise
Страна: Франция
Жанр: драма
Год выпуска: 1975
Продолжительность: 1:51:26
Перевод: одноголосый закадровый;
перевод - Ольга Мисири, работа со звуком - Кирилл Иванов, текст читает Виталий Гирон.
Cубтитры: русские
Оригинальная аудиодорожка: французский
Режиссер: Лилиан де Кермадек / Lilian de Kermadec
В ролях:
Дельфин Сейриг (Delphine Seyrig) - взрослая Алоиза
Изабель Юппер (Isabelle Huppert) - юная Алоиза
Мишель Лонсдейл (Michael Lonsdale) - директор больницы
Марк Эйро (Marc Eyraud) - отец Алоизы
Жюльен Гиомар (Julien Guiomar) - директор театра
Роже Блен (Roger Blin) - учитель пения
Описание: История жизни Алоизы Порра, от юных лет, когда она мечтала стать оперной певицей и долгое время брала уроки пения, до глубокой старости в психиатрической клинике, куда она попала в результате необъяснимого нервного срыва и где стала писать картины, сделавшие её всемирно известной. Прообразом главной героини стала швейцарская художница Алоиза Корбас (1886-1964).
Доп. информация:
Номинация на "Сезар" (Французская киноакадемия):
актриса 2-го плана - Изабель Юппер.
Сэмпл: https://yadi.sk/i/Kr5nBNOafXpiu
Качество видео: DVDRip
Формат видео: AVI
Видео: 640x400 (1.60:1), 25 fps, XviD build 50 ~1559 kbps avg, 0.24 bit/pixel 1247.29 Mb
Аудио: 48 kHz, AC3 Dolby Digital, 2/0 (L,R) ch, ~192 kbps 1:51:26.680 / 153.05 Mb - русская дорожка
Аудио 2: 48 kHz, AC3 Dolby Digital, 2/0 (L,R) ch, ~192 kbps 1:51:26.655 / 153.05 Mb - французская дорожка (отдельно)
Формат субтитров: softsub (SRT)

MediaInfo

Общее
Полное имя : D:\Моё кино\Мои релизы\Aloise (1975)\Aloise (1975).avi
Формат : AVI
Формат/Информация : Audio Video Interleave
Размер файла : 1,37 Гбайт
Продолжительность : 1 ч. 51 м.
Общий поток : 1762 Кбит/сек
Программа кодирования : VirtualDubMod 1.5.10.2 (build 2542/release)
Библиотека кодирования : VirtualDubMod build 2542/release
Видео
Идентификатор : 0
Формат : MPEG-4 Visual
Профиль формата : Advanced Simple@L5
Параметр BVOP формата : 1
Параметр QPel формата : Нет
Параметр GMC формата : Без точки перехода
Параметр матрицы формата : Default (MPEG)
Идентификатор кодека : XVID
Идентификатор кодека/Подсказка : XviD
Продолжительность : 1 ч. 51 м.
Битрейт : 1560 Кбит/сек
Ширина : 640 пикселей
Высота : 400 пикселей
Соотношение сторон : 16:10
Частота кадров : 25,000 кадров/сек
Цветовое пространство : YUV
Субдискретизация насыщенности : 4:2:0
Битовая глубина : 8 бит
Тип развёртки : Прогрессивная
Метод сжатия : С потерями
Бит/(Пиксели*Кадры) : 0.244
Размер потока : 1,21 Гбайт (89%)
Библиотека кодирования : XviD 1.2.1 (UTC 2008-12-04)
Аудио
Идентификатор : 1
Формат : AC-3
Формат/Информация : Audio Coding 3
Расширение режима : CM (complete main)
Параметр Endianness формата : Big
Идентификатор кодека : 2000
Продолжительность : 1 ч. 51 м.
Вид битрейта : Постоянный
Битрейт : 192 Кбит/сек
Каналы : 2 канала
Расположение каналов : Front: L R
Частота : 48,0 КГц
Битовая глубина : 16 бит
Метод сжатия : С потерями
Размер потока : 153 Мбайт (11%)
Выравнивание : Разделение по промежуткам
Продолжительность промежутка : 40 мс. (1,00 видеокадр)
Время предзагрузки промежутка : 500 мс.
Общее
Полное имя : D:\Моё кино\Мои релизы\Aloise (1975)\Aloise.srt
Формат : SubRip
Размер файла : 62,9 Кбайт
Текст
Формат : SubRip
Метод сжатия : Без потерь
Общее
Полное имя : D:\Моё кино\Мои релизы\Aloise (1975)\Original.ac3
Формат : AC-3
Формат/Информация : Audio Coding 3
Размер файла : 153 Мбайт
Продолжительность : 1 ч. 51 м.
Режим общего битрейта : Постоянный
Общий поток : 192 Кбит/сек
Аудио
Формат : AC-3
Формат/Информация : Audio Coding 3
Расширение режима : CM (complete main)
Параметр Endianness формата : Big
Продолжительность : 1 ч. 51 м.
Вид битрейта : Постоянный
Битрейт : 192 Кбит/сек
Каналы : 2 канала
Расположение каналов : Front: L R
Частота : 48,0 КГц
Битовая глубина : 16 бит
Метод сжатия : С потерями
Размер потока : 153 Мбайт (100%)

Скриншот c названием фильма

Скриншоты





[teatrix.ru].t5929.torrent 
Торрент: Зарегистрирован [ 2015-10-10 09:49 ] · F00DD46F9D57EEA2F251480201FA4F6E4632CF03

Скачать .torrent

Скачать

16 KB

Статус: проверено
Скачан: 0 раз
Размер: 1.52 GB
terms.php



Быстрый ответ

Имя:

      
Для отправки сообщений необходимо включить JavaScript
Показать сообщения:    

Текущее время: 03-Дек 16:45

Часовой пояс: UTC + 3


Вы можете начинать темы
Вы можете отвечать на сообщения
Вы не можете редактировать свои сообщения
Вы не можете удалять свои сообщения
Вы не можете голосовать в опросах
Вы не можете прикреплять файлы к сообщениям
Вы можете скачивать файлы