Маленькая волшебница / Волшебная девочка / Magical Girl (Карлос Вермут / Carlos Vermut) [2014, Испания, драма, триллер, BDRip-AVC] AVO (Антон Алексеев)


 

[Цитировать]

Маленькая волшебница / Волшебная девочка / Magical Girl
Страна: Испания
Жанр: драма, триллер
Год выпуска: 2014
Продолжительность: 02:06:55
Перевод: Авторский (одноголосый закадровый) Антон Алексеев
Cубтитры: нет
Оригинальная аудиодорожка: нет
Навигация по главам: есть
Режиссер: Карлос Вермут / Carlos Vermut
В ролях: Хавьер Ботет, Барбара Ленни, Хосе Сакристан, Луис Бермехо, Люсия Пойан, Марисоль Мембрильо, Элисабет Хелаберт, Исраэль Элехальде, Хулио Арройо, Микель Инсуа, Тереса Сория Руано
О фильме: 12-летняя Алисия может не стесняясь попросить отца о сигарете и глотке джина. Для нее не существует понятия «слишком рано», потому что нет слова «потом»: девочка тяжело больна. Только костюм любимого японского анимэшного персонажа Юкико может доставить ей настоящую радость. Но волшебное платье стоит реальных денег, которые на фоне всеобщего кризиса кажутся безработному отцу запредельной суммой. Когда он случайно знакомится с богатой красавицей Барбарой, сгорающей от депрессии в холодном интерьере пустынной квартиры, в его голове рождается план – не менее страшный, чем плата за него. В борьбе между инстинктами и разумом герои перешагивают границы собственной человечности, а Карлос Вермут – границы жанров, создавая свою вселенную из эксцентричных образов японских манга и комиксов Чарльза Бернса, отсылок к Луису Бунюэлю и Карлосу Сауре.
Доп. информация: http://www.imdb.com/title/tt3089326/
Исходник: http://teatrix.ru/viewtopic.php?t=6701
Сэмпл: http://rusfolder.com/43306510
Внимание: торрент перезалит! Скачавшим, просьба перекачать файл!
Качество видео: BDRip-AVC
Формат видео: MKV
Видео: x264, 1152x480 (2.40:1), 24 fps, ~1189 kbps avg, 0.09 bit/pixel
Аудио: 48 kHz, AC3 Dolby Digital, 3/2 (L,C,R,l,r) + LFE ch, ~448 kbps

MediaInfo

Общее
Уникальный идентификатор : 203970879117426828575012114223754068228 (0x99735CC56DC4AF5899B60F7D3CB34104)
Полное имя : E:\Фильмы\Маленькая волшебница\Magical.Girl.2014.BDRip-AVC.mkv
Формат : Matroska
Версия формата : Version 4 / Version 2
Размер файла : 1,45 Гбайт
Продолжительность : 2 ч. 6 м.
Общий поток : 1639 Кбит/сек
Название фильма : Magical Girl (Carlos Vermut, 2014) BDRip-AVC
Дата кодирования : UTC 2015-03-25 14:11:08
Программа кодирования : mkvmerge v6.1.0 ('Old Devil') built on Mar 4 2013 09:10:42
Библиотека кодирования : libebml v1.3.0 + libmatroska v1.4.0
Видео
Идентификатор : 1
Формат : AVC
Формат/Информация : Advanced Video Codec
Профиль формата : High@L4.1
Параметр CABAC формата : Да
Параметр ReFrames формата : 12 кадров
Идентификатор кодека : V_MPEG4/ISO/AVC
Продолжительность : 2 ч. 6 м.
Битрейт : 1189 Кбит/сек
Ширина : 1152 пикселя
Высота : 480 пикселей
Соотношение сторон : 2,40:1
Режим частоты кадров : Постоянный
Частота кадров : 24,000 кадра/сек
Цветовое пространство : YUV
Субдискретизация насыщенности : 4:2:0
Битовая глубина : 8 бит
Тип развёртки : Прогрессивная
Бит/(Пиксели*Кадры) : 0.090
Размер потока : 1,03 Гбайт (71%)
Библиотека кодирования : x264 core 142 r2491 24e4fed
Настройки программы : cabac=1 / ref=12 / deblock=1:-2:-1 / analyse=0x3:0x133 / me=umh / subme=10 / psy=1 / psy_rd=0.96:0.15 / mixed_ref=1 / me_range=32 / chroma_me=1 / trellis=2 / 8x8dct=1 / cqm=0 / deadzone=21,11 / fast_pskip=0 / chroma_qp_offset=-3 / threads=12 / lookahead_threads=3 / sliced_threads=0 / nr=0 / decimate=0 / interlaced=0 / bluray_compat=0 / constrained_intra=0 / bframes=16 / b_pyramid=2 / b_adapt=2 / b_bias=0 / direct=3 / weightb=1 / open_gop=0 / weightp=2 / keyint=240 / keyint_min=23 / scenecut=40 / intra_refresh=0 / rc=2pass / mbtree=0 / bitrate=1189 / ratetol=1.0 / qcomp=0.60 / qpmin=10 / qpmax=51 / qpstep=4 / cplxblur=20.0 / qblur=0.5 / ip_ratio=1.35 / pb_ratio=1.25 / aq=2:0.80
Язык : Spanish
Default : Да
Forced : Нет
Коэффициенты матрицы : BT.709
Аудио
Идентификатор : 2
Формат : AC-3
Формат/Информация : Audio Coding 3
Расширение режима : CM (complete main)
Параметр Endianness формата : Big
Идентификатор кодека : A_AC3
Продолжительность : 2 ч. 6 м.
Вид битрейта : Постоянный
Битрейт : 448 Кбит/сек
Каналы : 6 каналов
Расположение каналов : Front: L C R, Side: L R, LFE
Частота : 48,0 КГц
Битовая глубина : 16 бит
Метод сжатия : С потерями
Размер потока : 407 Мбайт (27%)
Заголовок : AVO - Антон Алексеев
Язык : Russian
Default : Да
Forced : Нет
Меню
00:00:00.000 : en:Chapter 1
00:07:31.250 : en:Chapter 2
00:30:36.291 : en:Chapter 3
00:43:45.791 : en:Chapter 4
01:00:51.875 : en:Chapter 5
01:17:31.125 : en:Chapter 6
01:36:23.166 : en:Chapter 7
01:43:05.083 : en:Chapter 8

x264

x264 [info]: frame I:1076 Avg QP:14.33 size: 56749
x264 [info]: frame P:29456 Avg QP:16.81 size: 17073
x264 [info]: frame B:152240 Avg QP:17.88 size: 3730
x264 [info]: consecutive B-frames: 0.8% 0.4% 1.8% 6.2% 6.3% 55.1% 5.9% 1.0% 10.6% 0.2% 1.8% 8.0% 0.3% 0.1% 0.5% 0.1% 0.8%
x264 [info]: mb I I16..4: 10.7% 73.0% 16.4%
x264 [info]: mb P I16..4: 0.4% 3.9% 0.5% P16..4: 42.8% 24.6% 16.0% 0.4% 0.2% skip:11.2%
x264 [info]: mb B I16..4: 0.0% 0.1% 0.0% B16..8: 32.7% 7.7% 1.6% direct: 2.5% skip:55.3% L0:47.0% L1:44.9% BI: 8.1%
x264 [info]: 8x8 transform intra:78.0% inter:50.9%
x264 [info]: direct mvs spatial:98.6% temporal:1.4%
x264 [info]: coded y,uvDC,uvAC intra: 87.5% 68.9% 49.3% inter: 12.9% 8.7% 3.6%
x264 [info]: i16 v,h,dc,p: 42% 7% 12% 40%
x264 [info]: i8 v,h,dc,ddl,ddr,vr,hd,vl,hu: 17% 10% 12% 8% 10% 11% 10% 11% 11%
x264 [info]: i4 v,h,dc,ddl,ddr,vr,hd,vl,hu: 17% 9% 4% 9% 14% 14% 12% 11% 11%
x264 [info]: i8c dc,h,v,p: 43% 25% 21% 10%
x264 [info]: Weighted P-Frames: Y:2.0% UV:0.6%
x264 [info]: ref P L0: 38.5% 10.9% 16.0% 8.0% 6.3% 5.2% 4.7% 3.0% 2.4% 2.0% 1.6% 1.3% 0.0% 0.0%
x264 [info]: ref B L0: 56.6% 18.0% 8.2% 4.7% 3.7% 2.9% 2.4% 1.4% 1.2% 0.6% 0.3%
x264 [info]: ref B L1: 91.0% 9.0%

Скриншоты





Показать сообщения:    

Текущее время: 09-Дек 18:34

Часовой пояс: UTC + 3


Вы не можете начинать темы
Вы не можете отвечать на сообщения
Вы не можете редактировать свои сообщения
Вы не можете удалять свои сообщения
Вы не можете голосовать в опросах
Вы не можете прикреплять файлы к сообщениям
Вы не можете скачивать файлы