Пейзаж в тумане / Topio stin omichli / Landscape in the Mist (Тео Ангелопулос / Theodoros Angelopoulos) [1988, Греция, Франция, Италия, драма, притча, HDRip] DVO + Sub Rus, Eng + Original Gre


 

[Цитировать]

Пейзаж в тумане / Topio stin omichli / Landscape in the Mist
Страна: Греция, Франция, Италия
Жанр: драма, притча
Год выпуска: 1988
Продолжительность: 02:04:49
Перевод: Профессиональный (двухголосый закадровый)
Cубтитры: английские, русские (семья ГД)
Оригинальная аудиодорожка: греческий
Режиссер: Тео Ангелопулос / Theodoros Angelopoulos
В ролях: Таня Палайологлу /Tania Palaiologou/, Михалис Зеке /Michalis Zeke/, Алики Георгули /Aliki Georgouli/, Димитрис Каберидис /Dimitris Kaberidis/, Вассилис Коловос /Vassilis Kolovos/, Ллиас Логотезис /Ilias Logothetis/, Герасимос Скиадарессис /Gerasimos Skiadaressis/
О фильме: "Пейзаж в тумане" - один из луших фильмов Ангелопулоса, объединивший в себе характерные мотивы его позднего стиля: путешествие, граница, море (как своего рода безграничность), люди в желтом, снежный пейзаж, бродячий музыкант, холодный колорит, атмосфера печали. Главные персонажи фильма - двое детей, брат и сетра, отправляющиеся на поиски отца, которого никогда не видели и о котором им известно только, что он живет в Германии. Они едут к границе , которая, как всегда у Ангелопулоса обретает метафорическое значение. Перейти ее - это перейти в иной, лучший мир, к чистой детской мечте (воплощенной здесь как мечта встретиться с отцом). Иначе говоря, в рай. На пути к нему лежат многочисленные препятствия - земные реалии, большей частью грубые, так не похожие на него. Через них дети в короткий срок познают жизнь в самых различных ее проявлениях - и отвратительных, и прекрасных. Но они не отвлекаются от главной цели своего путешествия. К ней их неизменно ведет забытая в современном мире чистота, непрагматичность сознания (другое проявление которого мы найдем в лице друга мальчика - сумасшедшего, стоящего за больничной решеткой, но возомнившего себя чайкой, "улетающего" таким образом из неволи грубого мира). И дети снова и снова держат путь к границе, еще одним емким и красивым образом которой является пустой кадр, в котором земному взору ничего не видно, но по ту сторону которого лежит мечта, обращающая пустоту красивым "пейзажем в тумане".
Доп. информация: http://www.imdb.com/title/tt0096288/
Исходник: http://teatrix.ru/viewtopic.php?t=6844
Сэмпл: http://rusfolder.com/43274663
Качество видео: HDRip
Формат видео: AVI
Видео: 720x528 (1.36:1), 23.976 fps, XviD build 73 ~2096 kbps avg, 0.23 bit/pixel
Аудио #1: 48 kHz, AC3 Dolby Digital, 2/0 (L,R) ch, ~192 kbps avg - русский
Аудио #2: 48 kHz, AC3 Dolby Digital, 2/0 (L,R) ch, ~192 kbps avg - оригинал
Формат субтитров: softsub (SRT)

MediaInfo

Общее
Полное имя : E:\Фильмы\Topio.stin.omichli.1988.HDRip\Topio.stin.omichli.1988.HDRip.avi
Формат : AVI
Формат/Информация : Audio Video Interleave
Профиль формата : OpenDML
Размер файла : 2,18 Гбайт
Продолжительность : 2 ч. 4 м.
Общий поток : 2498 Кбит/сек
Программа кодирования : VirtualDubMod 1.5.10.2 (build 2540/release)
Библиотека кодирования : VirtualDubMod build 2540/release
Правообладатель : rip by Judas_X
Видео
Идентификатор : 0
Формат : MPEG-4 Visual
Профиль формата : Advanced Simple@L5
Параметр BVOP формата : 1
Параметр QPel формата : Нет
Параметр GMC формата : Без точки перехода
Параметр матрицы формата : Выборочная
Идентификатор кодека : XVID
Идентификатор кодека/Подсказка : XviD
Продолжительность : 2 ч. 4 м.
Битрейт : 2096 Кбит/сек
Ширина : 720 пикселей
Высота : 528 пикселей
Соотношение сторон : 4:3
Частота кадров : 23,976 кадра/сек
Цветовое пространство : YUV
Субдискретизация насыщенности : 4:2:0
Битовая глубина : 8 бит
Тип развёртки : Прогрессивная
Метод сжатия : С потерями
Бит/(Пиксели*Кадры) : 0.230
Размер потока : 1,83 Гбайт (84%)
Библиотека кодирования : XviD 73
Аудио #1
Идентификатор : 1
Формат : AC-3
Формат/Информация : Audio Coding 3
Расширение режима : CM (complete main)
Параметр Endianness формата : Big
Идентификатор кодека : 2000
Продолжительность : 2 ч. 4 м.
Вид битрейта : Постоянный
Битрейт : 192 Кбит/сек
Каналы : 2 канала
Расположение каналов : Front: L R
Частота : 48,0 КГц
Битовая глубина : 16 бит
Метод сжатия : С потерями
Размер потока : 171 Мбайт (8%)
Выравнивание : Разделение по промежуткам
Продолжительность промежутка : 42 мс. (1,00 видеокадр)
Время предзагрузки промежутка : 500 мс.
Аудио #2
Идентификатор : 2
Формат : AC-3
Формат/Информация : Audio Coding 3
Расширение режима : CM (complete main)
Параметр Endianness формата : Big
Идентификатор кодека : 2000
Продолжительность : 2 ч. 4 м.
Вид битрейта : Постоянный
Битрейт : 192 Кбит/сек
Каналы : 2 канала
Расположение каналов : Front: L R
Частота : 48,0 КГц
Битовая глубина : 16 бит
Метод сжатия : С потерями
Размер потока : 171 Мбайт (8%)
Выравнивание : Разделение по промежуткам
Продолжительность промежутка : 42 мс. (1,00 видеокадр)
Время предзагрузки промежутка : 500 мс.



Показать сообщения:    

Текущее время: 03-Дек 12:37

Часовой пояс: UTC + 3


Вы не можете начинать темы
Вы не можете отвечать на сообщения
Вы не можете редактировать свои сообщения
Вы не можете удалять свои сообщения
Вы не можете голосовать в опросах
Вы не можете прикреплять файлы к сообщениям
Вы не можете скачивать файлы