Патти Хилл / Putty Hill (Мэттью Портефилд / Matthew Porterfield) [2010, США, драма, DVDRip] Sub Rus + Original eng


Статистика раздачи [Обновить пиров]
Размер:  1.37 GB   |    Зарегистрирован:  1 год 1 месяц   |    Скачан:  0 раз

Полного источника не было: Никогда

 
   
 
 
 

[Цитировать]

Патти Хилл / Putty HillГод выпуска: 2010
Страна: США
Жанр: драма
Продолжительность: 01:26:18
Cубтитры: русские (Playball)
Оригинальная аудиодорожка: английский
Режиссер: Мэттью Портефилд / Matthew Porterfield
Сценарий: Jordan Mintzer, Мэттью Портефилд / Matthew Porterfield
Продюсер: Эрик Баннат / Eric Bannat, Стив Холмгрин / Steve Holmgren, Джойс Ким / Joyce Kim, Jordan Mintzer, Тиан Чэн До / Tian Cheng Dou
Оператор: Джереми Солнье / Jeremy Saulnier
В ролях: Скай Феррейра, Коуди Рэй, Дастин Рэй, Зои Вэнс-Описание: Несколько товарищей собираются в караоке-баре, чтобы помянуть ушедшего из жизни молодого человека. Зная совсем немного о его последних днях, они пытаются восстановить свои собственные жизни по записям и фотографиям.-Рейтинг
Кинопоиск
IMDB-Качество: DVDRip
Формат: AVI
Видео: XviD; 720x400 (16:9); 2066 Kbps; 23,976 fps; 0,299 bpp
Аудио: AC3; 192 Kbps; CBR; 2 ch; 48.0 KHz-

MI

Format : AVI
Format/Info : Audio Video Interleave
File size : 1.37 GiB
Duration : 1h 26mn
Overall bit rate : 2 268 Kbps
Writing application : VirtualDubMod 1.5.10.3 | www.virtualdub-fr.org || (build 2550/release)
Writing library : VirtualDubMod build 2550/release
Video
ID : 0
Format : MPEG-4 Visual
Format profile : Advanced Simple@L5
Format settings, BVOP : 1
Format settings, QPel : No
Format settings, GMC : No warppoints
Format settings, Matrix : Default (MPEG)
Codec ID : XVID
Codec ID/Hint : XviD
Duration : 1h 26mn
Bit rate : 2 066 Kbps
Width : 720 pixels
Height : 400 pixels
Display aspect ratio : 16:9
Frame rate : 23.976 fps
Color space : YUV
Chroma subsampling : 4:2:0
Bit depth : 8 bits
Scan type : Progressive
Compression mode : Lossy
Bits/(Pixel*Frame) : 0.299
Stream size : 1.25 GiB (91%)
Writing library : XviD 1.2.1 (UTC 2008-12-04)
Audio
ID : 1
Format : AC-3
Format/Info : Audio Coding 3
Mode extension : CM (complete main)
Format settings, Endianness : Big
Codec ID : 2000
Duration : 1h 26mn
Bit rate mode : Constant
Bit rate : 192 Kbps
Channel(s) : 2 channels
Channel positions : Front: L R
Sampling rate : 48.0 KHz
Bit depth : 16 bits
Compression mode : Lossy
Delay relative to video : 1s 854ms
Stream size : 119 MiB (8%)
Alignment : Split accross interleaves
Interleave, duration : 42 ms (1.00 video frame)
Interleave, preload duration : 500 ms

Пример субтитров

334
00:31:49,070 --> 00:31:50,660
Было непривычно снова
с ней встретиться?
335
00:31:50,937 --> 00:31:52,096
Немного.
336
00:31:52,870 --> 00:31:54,598
Ты знала ее брата?
337
00:31:54,964 --> 00:31:56,543
- Смутно.
- Я замерзла.
338
00:31:56,710 --> 00:31:58,975
Я часто его вспоминаю.
339
00:32:41,161 --> 00:32:43,689
- Возьмешь меня в школу?
- Да.
340
00:33:49,289 --> 00:33:50,723
Бог Солнца.
341
00:35:47,328 --> 00:35:49,865
«Они понюхали камень
с холма,
342
00:35:50,114 --> 00:35:52,132
но он пах как камень,
343
00:35:52,346 --> 00:35:54,779
это был не Сильвестр».
344
00:35:57,225 --> 00:36:01,778
«Они продолжали поиски,
345
00:36:01,955 --> 00:36:05,790
искали кого-то похожего,
346
00:36:05,959 --> 00:36:09,862
но родители Сильвестра
уже не знали, что делать».
347
00:36:10,864 --> 00:36:14,314
«Они решили, что
случилось непоправимое,
348
00:36:14,475 --> 00:36:17,527
и они больше не увидят
своего сына».
349
00:36:17,871 --> 00:36:21,000
«А ведь Сильвестр
был всего в миле от них!»
350
00:36:21,739 --> 00:36:26,236
«Они очень старались
вернуться к прошлой жизни».
351
00:36:26,579 --> 00:36:28,980
«Но ведь в той жизни
был он».
352
00:36:29,264 --> 00:36:31,818
«И все напоминало о нем».
353
00:36:31,985 --> 00:36:33,749
«Они были очень несчастны».
354
00:36:34,150 --> 00:36:37,485
«Жизнь потеряла
для них смысл».

Скриншоты


[teatrix.ru].t5934.torrent 
Торрент: Зарегистрирован [ 2015-10-10 09:49 ] · 0198AD22408BEF445905D00B4CBB5984B81ED2F5

Скачать .torrent

Скачать

14 KB

Статус: проверено
Скачан: 0 раз
Размер: 1.37 GB
terms.php



Быстрый ответ

Имя:

      
Для отправки сообщений необходимо включить JavaScript
Показать сообщения:    

Текущее время: 05-Дек 23:39

Часовой пояс: UTC + 3


Вы можете начинать темы
Вы можете отвечать на сообщения
Вы не можете редактировать свои сообщения
Вы не можете удалять свои сообщения
Вы не можете голосовать в опросах
Вы не можете прикреплять файлы к сообщениям
Вы можете скачивать файлы