Негр-погорелец / Svidd neger (Эрик Смит Мейер / Erik Smith Meyer) [2003, Норвегия, драма, комедия, DVDRip] VO


Статистика раздачи [Обновить пиров]
Размер:  1.07 GB   |    Зарегистрирован:  1 год 1 месяц   |    Скачан:  0 раз

Полного источника не было: Никогда

 
   
 
 
 

[Цитировать]

Негр-погорелец / Svidd neger
Страна: Норвегия
Жанр: Драма, комедия, для взрослых
Год выпуска: 2003
Продолжительность: 01:25:29
Перевод: Одноголосый закадровый (Валерий Феодосов)
Cубтитры: нет
Режиссер: Эрик Смит Мейер / Erik Smith Meyer
В ролях: Thor-Inge Gullvåg -Карл
Kjersti Lid Gullvåg - Анна
Kingsford Siayor - Анте
Eirik Junge Eliassen - Педер
Guri Johnson - Эллен Маргрете
Frank Jørstad - Норманн Хётта Бонго Ютси Сёс
Björn Granath - Священник
Описание: В отдаленном местечке Норвегии живут молодая девушка Анна и ее престарелый отец-алкоголик, которому то и дело мерещится ранее им убитая его вторая жена Магда, поплатившаяся своей жизнью за измену, которая стала явной после рождения темнокожего ребенка. Они оба мечтают найти Анне мужа, но в этом захолустье это сделать непросто. События начинают принимать иной оборот, когда Анна случайно увидела чернокожего юношу, живущего со своей семьей неподалеку...
Сэмпл: https://www.sendspace.com/file/boqmfy
Качество видео: DVDRip
Формат видео: AVI
Видео: XviD, 1593 Кбит/с, 720x304, 25 fps
Аудио: MP3 at 192 Кбит/сек; 2 канала, 44,1 КГц

MediaInfo

Format : AVI
Format/Info : Audio Video Interleave
File size : 1.07 GiB
Duration : 1h 25mn
Overall bit rate : 1 795 Kbps
Writing application : VirtualDubMod 1.5.10.3 | www.virtualdub-fr.org || (build 2550/release)
Writing library : VirtualDub build 35491/release
Copyright : destruktor
Video #0
ID : 0
Format : MPEG-4 Visual
Format profile : Advanced Simple@L5
Format settings, BVOP : 2
Format settings, QPel : No
Format settings, GMC : No warppoints
Format settings, Matrix : Default (MPEG)
Codec ID : XVID
Codec ID/Hint : XviD
Duration : 1h 25mn
Bit rate : 1 593 Kbps
Width : 720 pixels
Height : 304 pixels
Display aspect ratio : 2.35:1
Frame rate : 25.000 fps
Color space : YUV
Chroma subsampling : 4:2:0
Bit depth : 8 bits
Scan type : Progressive
Compression mode : Lossy
Bits/(Pixel*Frame) : 0.291
Stream size : 974 MiB (89%)
Writing library : XviD 1.2.1 (UTC 2008-12-04)
Audio #1
ID : 1
Format : MPEG Audio
Format version : Version 1
Format profile : Layer 3
Codec ID : 55
Codec ID/Hint : MP3
Duration : 1h 25mn
Bit rate mode : Constant
Bit rate : 192 Kbps
Channel(s) : 2 channels
Sampling rate : 44.1 KHz
Compression mode : Lossy
Stream size : 117 MiB (11%)
Alignment : Split accross interleaves
Interleave, duration : 40 ms (1.00 video frame)
Interleave, preload duration : 500 ms

Скриншоты

[teatrix.ru].t5935.torrent 
Торрент: Зарегистрирован [ 2015-10-10 09:49 ] · B454F96F5090FBAA031BD480990F4E58D389F37A

Скачать .torrent

Скачать

11 KB

Статус: проверено
Скачан: 0 раз
Размер: 1.07 GB
terms.php



Быстрый ответ

Имя:

      
Для отправки сообщений необходимо включить JavaScript
Показать сообщения:    

Текущее время: 04-Дек 04:59

Часовой пояс: UTC + 3


Вы можете начинать темы
Вы можете отвечать на сообщения
Вы не можете редактировать свои сообщения
Вы не можете удалять свои сообщения
Вы не можете голосовать в опросах
Вы не можете прикреплять файлы к сообщениям
Вы можете скачивать файлы