Дурацкое дело нехитрое / Kraftidioten / In Order of Disappearance (Ганс Петтер Моланд / Hans Petter Moland) [2014, Норвегия, Швеция, криминал, комедия, BDRip] MVO


 

[Цитировать]

Дурацкое дело нехитрое / Kraftidioten / In Order of Disappearance
Год выпуска: 2014
Страна: Норвегия, Дания, Швеция
Жанр: триллер, криминал, комедия
Продолжительность: 01:56:28
Перевод: Профессиональный (многоголосый, закадровый)
Субтитры: нет
Режиссер: Ганс Петтер Моланд / Hans Petter Moland
В ролях: Стеллан Скарсгард (Nils), Биргитта Йорт Сёренсен (Marit), Тобиас Зантельман (Finn), Кристофер Хивью (Strike), Бруно Ганц (Papa), Якоб Офтебро (Aron Horowitz), Пол Сверре Валхейм Хаген (Greven), Андерс Баасмо Кристиансен (Geir), Сергей Трифунович (Nebojsa), Петер Андерссон (Wingman), Стиг Хенрик Хофф (Experienced police officer), Дэвид Сакурай (Kinamann)-Бюджет: NOK 35 304 282
Мировая премьера: 10 февраля 2014-Описание: Норвегия. Зима. Трудолюбивый Нилс управляет мощным плужным снегоочистителем, который очищает дороги и горные проходы негостеприимного обледенелого ландшафта местности, где он сам живёт. Совсем недавно он был признан жителем года за свои старания, а теперь получает известие о том, что его сын погиб в результате передозировки героина. Отказываясь верить в правдивость официальной версии смерти своего сына, он начинает тайное расследование с целью найти предполагаемых убийц парня. Однако дальнейшие события разворачиваются самым непредсказуемым образом, и ему приходится стать таинственным героем, внушающим страх в преступном мире.
[/url]Рейтинг
kinopoisk.ru: 7.003 (3718)
imdb.com: 7.40 (4472)
-Качество: BDRip (Исходник: Blu-Ray Remux)
Формат: AVI //SAMPLE//
Видео: 720x304 (2.37:1), 24 fps, XviD build 66 ~1589 kbps avg, 0.30 bit/pixel
Аудио: 48 kHz, AC3 Dolby Digital, 2/0 (L,R) ch, ~192 kbps

MediaInfo

Общее
Полное имя : F:\Video\AVI\Films\Durackoe.Delo.Nehitroe.2014.RUS.BDRip.XviD.AC3.-AllFilms.avi
Формат : AVI
Формат/Информация : Audio Video Interleave
Размер файла : 1,46 Гбайт
Продолжительность : 1 ч. 56 м.
Общий поток : 1791 Кбит/сек
Название фильма : Дурацкое дело нехитрое / Kraftidioten / In Order of Disappearance (2014)
Режиссёр : Shevon (BDRemux)
Программа кодирования : VirtualDubMod 1.5.10.3 | www.virtualdub-fr.org || (build 2550/release)
Правообладатель : AllFilms
Видео
Идентификатор : 0
Формат : MPEG-4 Visual
Профиль формата : Advanced Simple@L5
Параметр BVOP формата : 1
Параметр QPel формата : Нет
Параметр GMC формата : Без точки перехода
Параметр матрицы формата : Выборочная
Идентификатор кодека : XVID
Идентификатор кодека/Подсказка : XviD
Продолжительность : 1 ч. 56 м.
Битрейт : 1590 Кбит/сек
Ширина : 720 пикселей
Высота : 304 пикселя
Соотношение сторон : 2,35:1
Частота кадров : 24,000 кадра/сек
Цветовое пространство : YUV
Субдискретизация насыщенности : 4:2:0
Битовая глубина : 8 бит
Тип развёртки : Прогрессивная
Метод сжатия : С потерями
Бит/(Пиксели*Кадры) : 0.303
Размер потока : 1,29 Гбайт (89%)
Библиотека кодирования : XviD 66
Аудио
Идентификатор : 1
Формат : AC-3
Формат/Информация : Audio Coding 3
Расширение режима : CM (complete main)
Параметр Endianness формата : Big
Идентификатор кодека : 2000
Продолжительность : 1 ч. 56 м.
Вид битрейта : Постоянный
Битрейт : 192 Кбит/сек
Каналы : 2 канала
Расположение каналов : Front: L R
Частота : 48,0 КГц
Битовая глубина : 16 бит
Метод сжатия : С потерями
Размер потока : 160 Мбайт (11%)
Выравнивание : Разделение по промежуткам
Продолжительность промежутка : 42 мс. (1,00 видеокадр)
Время предзагрузки промежутка : 500 мс.

Скриншоты




Показать сообщения:    

Текущее время: 05-Дек 17:35

Часовой пояс: UTC + 3


Вы не можете начинать темы
Вы не можете отвечать на сообщения
Вы не можете редактировать свои сообщения
Вы не можете удалять свои сообщения
Вы не можете голосовать в опросах
Вы не можете прикреплять файлы к сообщениям
Вы не можете скачивать файлы