Забриски Пойнт / Zabriskie Point (Микеланджело Антониони / Michelangelo Antonioni) [1970, США, Италия, драма, DVDRip-AVC] DVO + Original Eng


Статистика раздачи [Обновить пиров]
Размер:  1.95 GB   |    Зарегистрирован:  1 год 2 месяца   |    Скачан:  0 раз

Полного источника не было: Никогда

 
   
 
 
 

[Цитировать]

Забриски Пойнт / Zabriskie Point
Страна: США, Италия
Жанр: драма
Год выпуска: 1970
Продолжительность: 01:49:05
Перевод: Профессиональный (двухголосый закадровый)
Cубтитры: нет
Оригинальная аудиодорожка: английский
Режиссер: Микеланджело Антониони / Michelangelo Antonioni
В ролях: Марк Фрешетт, Дэрия Хэлприн, Пол Фикс, Г.Д. Спрэдлин, Билл Гэрауэй, Кэтлин Кливер, Род Тейлор, Майкл Л. Дэвис, Ли Дункан
Описание: "Забриски поинт" - фильм полный бунтарского антибуржуазного духа, в котором представление о полноценной жизни неразрывно связано с идеей ломки социальных устоев, условностей среды. Один из его главных персонажей - юноша, не терпящий пустой болтовни мнимых "революционеров" и предпочитающий словам действия, позволивший себе повиноваться инстинкту свободы и наказанный за это обществом. В пустыне он знакомится с девушкой, тоже жаждущей внутренней свободы, но менее решительной. Вместе они совершают короткое путешествие в мир без ограничений, которым для них становится огромная пустыня.
Сэмпл: https://yadi.sk/i/dQ-3IbH3fP8Xv
DVD9

Качество видео: DVDRip-AVC
Формат видео: MKV
Видео: x264, 712х424 (1012х424), 2,40:1, 25,000 кадров/сек, 2123 Кбит/сек, 0.281 bit/pixel
Аудио: RUS - AC-3, 48,0 КГц, 192 Кбит/сек, стерео
Аудио 2: ENG - AC-3, 48,0 КГц, 192 Кбит/сек, моно

x264 log

x264 [info]: frame I:1002 Avg QP:15.79 size: 55913
x264 [info]: frame P:39919 Avg QP:17.20 size: 23584
x264 [info]: frame B:122705 Avg QP:18.62 size: 6382

MediaInfo

Полное имя : K:\Забриски Поинт (Zabriskie Point. 1969).mkv
Формат : Matroska
Версия формата : Version 4 / Version 2
Размер файла : 1,95 Гбайт
Продолжительность : 1 ч. 49 м.
Общий поток : 2558 Кбит/сек
Дата кодирования : UTC 2015-03-19 16:33:37
Программа кодирования : mkvmerge v7.5.0 ('Glass Culture') 32bit built on Jan 4 2015 16:37:25
Библиотека кодирования : libebml v1.3.1 + libmatroska v1.4.2
Видео
Идентификатор : 1
Формат : AVC
Формат/Информация : Advanced Video Codec
Профиль формата : High@L3.1
Параметр CABAC формата : Да
Параметр ReFrames формата : 10 кадров
Идентификатор кодека : V_MPEG4/ISO/AVC
Продолжительность : 1 ч. 49 м.
Битрейт : 2123 Кбит/сек
Ширина : 712 пикселей
Высота : 424 пикселя
Соотношение сторон : 2,40:1
Соотношение сторон в оригинале : 2,40:1
Режим частоты кадров : Постоянный
Частота кадров : 25,000 кадров/сек
Цветовое пространство : YUV
Субдискретизация насыщенности : 4:2:0
Битовая глубина : 8 бит
Тип развёртки : Прогрессивная
Бит/(Пиксели*Кадры) : 0.281
Размер потока : 1,62 Гбайт (83%)
Библиотека кодирования : x264 core 146 r2538kMod 121396c
Настройки программы : cabac=1 / ref=10 / deblock=1:-3:-3 / analyse=0x3:0x113 / me=umh / subme=9 / psy=1 / fade_compensate=0.00 / psy_rd=1.00:0.15 / mixed_ref=1 / me_range=24 / chroma_me=1 / trellis=2 / 8x8dct=1 / cqm=0 / deadzone=21,11 / fast_pskip=1 / chroma_qp_offset=-3 / threads=4 / lookahead_threads=1 / sliced_threads=0 / nr=0 / decimate=1 / interlaced=0 / bluray_compat=0 / constrained_intra=0 / fgo=0 / bframes=8 / b_pyramid=2 / b_adapt=2 / b_bias=0 / direct=1 / weightb=1 / open_gop=0 / weightp=2 / keyint=250 / keyint_min=25 / scenecut=40 / intra_refresh=0 / rc=crf / mbtree=0 / crf=18.0000 / qcomp=0.80 / qpmin=0 / qpmax=69 / qpstep=4 / ip_ratio=1.40 / pb_ratio=1.30 / aq=1:1.00
Язык : English
Default : Да
Forced : Нет
Аудио #1
Идентификатор : 2
Формат : AC-3
Формат/Информация : Audio Coding 3
Профиль формата : Dolby Digital
Расширение режима : CM (complete main)
Параметр Endianness формата : Big
Идентификатор кодека : A_AC3
Продолжительность : 1 ч. 49 м.
Вид битрейта : Постоянный
Битрейт : 192 Кбит/сек
Каналы : 2 канала
Расположение каналов : Front: L R
Частота : 48,0 КГц
Битовая глубина : 16 бит
Метод сжатия : С потерями
Размер потока : 150 Мбайт (8%)
Язык : Russian
Default : Да
Forced : Нет
Аудио #2
Идентификатор : 3
Формат : AC-3
Формат/Информация : Audio Coding 3
Расширение режима : CM (complete main)
Параметр Endianness формата : Big
Идентификатор кодека : A_AC3
Продолжительность : 1 ч. 49 м.
Вид битрейта : Постоянный
Битрейт : 192 Кбит/сек
Каналы : 1 канал
Расположение каналов : Front: C
Частота : 48,0 КГц
Битовая глубина : 16 бит
Метод сжатия : С потерями
Размер потока : 150 Мбайт (8%)
Язык : English
Default : Нет
Forced : Нет

Скриншот c названием фильма

Скриншоты

[teatrix.ru].t5937.torrent 
Торрент: Зарегистрирован [ 2015-10-10 09:49 ] · D1B6117D7823CBB08F077A89465EE95E4045DA07

Скачать .torrent

Скачать

20 KB

Статус: проверено
Скачан: 0 раз
Размер: 1.95 GB
terms.php



Быстрый ответ

Имя:

      
Для отправки сообщений необходимо включить JavaScript
Показать сообщения:    

Текущее время: 10-Дек 17:47

Часовой пояс: UTC + 3


Вы можете начинать темы
Вы можете отвечать на сообщения
Вы не можете редактировать свои сообщения
Вы не можете удалять свои сообщения
Вы не можете голосовать в опросах
Вы не можете прикреплять файлы к сообщениям
Вы можете скачивать файлы