Людвиг / Ludwig (Лукино Висконти / Luchino Visconti) [1972, Италия, Франция, Германия (ФРГ), драма, BDRip] MVO (ТК Культура) + MVO + VO (Film Prestige) + Sub Rus, Eng + Original Ita


 

[Цитировать]

Людвиг / Ludwig
Страна: Италия, Франция, ФРГ
Жанр: драма
Год выпуска: 1972
Продолжительность: 03:58:30
Перевод: Профессиональный (многоголосый закадровый) - ТК Культура
Перевод: Профессиональный (многоголосый закадровый)
Перевод: Профессиональный (одноголосый закадровый) - Film Prestige (текст читает Владимир Вихров)
Cубтитры: русские, английские
Оригинальная аудиодорожка: итальянский

Режиссер: Лукино Висконти / Luchino Visconti
В ролях: Хельмут Бергер, Роми Шнайдер, Тревор Ховард, Сильвана Мангано, Герт Фрёбе, Хельмут Грим, Умберто Орсини, Изабелла Тележиньска, Джон Маулдер-Браун, Соня Петровна, Хайнц Муг, Марк Порель, Александр Аллерсон, Карла Манчини
Описание: История последнего короля Баварии Людвига II (1845-1886) - короля-романтика и идеалиста, пытавшегося стать одним из самых просвещенных монархов Европы, поклонника и покровителя искусств.
Качество видео: BDRip
Формат видео: AVI
Видео: 720x304 (2.37:1), 23.976 fps, XviD build 50 ~1545 kbps avg, 0.29 bit/pixel
Аудио: 48 kHz, AC3 Dolby Digital, 2/0 (L,R) ch, ~192 kbps - Культура
отдельными файлами:
Аудио: 48 kHz, AC3 Dolby Digital, 2/0 (L,R) ch, ~192 kbps - многоголосый
Аудио: 48 kHz, AC3 Dolby Digital, 2/0 (L,R) ch, ~192 kbps - Film Prestige
Аудио: 48 kHz, AC3 Dolby Digital, 2/0 (L,R) ch, ~192 kbps - оригинал

MediaInfo

Общее
Полное имя : H:\Ludwig.1972.bdrip_[2.91]_[teko]\Ludwig.1972.bdrip_[2.91].avi
Формат : AVI
Формат/Информация : Audio Video Interleave
Профиль формата : OpenDML
Размер файла : 2,91 Гбайт
Продолжительность : 3 ч. 58 м.
Общий поток : 1744 Кбит/сек
Программа кодирования : VirtualDubMod 1.5.10.3 | www.virtualdub-fr.org || (build 2550/release)
Библиотека кодирования : VirtualDubMod build 2550/release
Видео
Идентификатор : 0
Формат : MPEG-4 Visual
Профиль формата : Advanced Simple@L5
Параметр BVOP формата : 1
Параметр QPel формата : Нет
Параметр GMC формата : Без точки перехода
Параметр матрицы формата : Выборочная
Идентификатор кодека : XVID
Идентификатор кодека/Подсказка : XviD
Продолжительность : 3 ч. 58 м.
Битрейт : 1542 Кбит/сек
Ширина : 720 пикселей
Высота : 304 пикселя
Соотношение сторон : 2,35:1
Частота кадров : 23,976 кадра/сек
Цветовое пространство : YUV
Субдискретизация насыщенности : 4:2:0
Битовая глубина : 8 бит
Тип развёртки : Прогрессивная
Метод сжатия : С потерями
Бит/(Пиксели*Кадры) : 0.294
Размер потока : 2,57 Гбайт (88%)
Библиотека кодирования : XviD 1.2.1 (UTC 2008-12-04)
Аудио
Идентификатор : 1
Формат : AC-3
Формат/Информация : Audio Coding 3
Расширение режима : CM (complete main)
Параметр Endianness формата : Big
Идентификатор кодека : 2000
Продолжительность : 3 ч. 58 м.
Вид битрейта : Постоянный
Битрейт : 192 Кбит/сек
Каналы : 2 канала
Расположение каналов : Front: L R
Частота : 48,0 КГц
Битовая глубина : 16 бит
Метод сжатия : С потерями
Размер потока : 328 Мбайт (11%)
Выравнивание : Разделение по промежуткам
Продолжительность промежутка : 42 мс. (1,00 видеокадр)
Время предзагрузки промежутка : 500 мс.

Скриншоты




Показать сообщения:    

Текущее время: 09-Дек 18:33

Часовой пояс: UTC + 3


Вы не можете начинать темы
Вы не можете отвечать на сообщения
Вы не можете редактировать свои сообщения
Вы не можете удалять свои сообщения
Вы не можете голосовать в опросах
Вы не можете прикреплять файлы к сообщениям
Вы не можете скачивать файлы