Искушение святого Тыну / The Temptation of St. Tony / Püha Tõnu kiusamine (Вейко Ыунпуу / Veiko Õunpuu) [2009, Эстония, драма, мистерия, триллер, DVDRip] VO (Fatumovich) + Sub Rus, Eng + Original


Статистика раздачи [Обновить пиров]
Размер:  1.35 GB   |    Зарегистрирован:  1 год 1 месяц   |    Скачан:  1 раз

Полного источника не было: 6 месяцев 9 дней

 
   
 
 
 

[Цитировать]

Искушение святого Тыну
The Temptation of St. Tony / Püha Tõnu kiusamine
- Страна: Эстония
Жанр: драма, мистерия, триллер
Год выпуска: 2009
Продолжительность: 01:49:56
Перевод: Одноголосый закадровый - Fatumovich
Cубтитры: русские, английские
Оригинальная аудиодорожка: эстонский
Режиссер: Вейко Ыунпуу / Veiko Õunpuu
В ролях: Таави Эельмаа, Равшана Куркова, Tiina Tauraite, Стен Льюнггрен, Дени Лаван, Хендрик Тоомпере (мл.)-Описание: Фильм-фантазия и фильм-метафора о «кризисе среднего возраста», об отношениях эстонца Тыну и русской девушки Надежды, о роли праведника в реальной жизни, о попытке найти в этой жизни свое призвание и не потерять при этом самого себя. Действие «Искушения» происходит сразу в двух реальностях – физической и психической. Эти реальности умышленно не отделены одна от другой. По всей видимости, «внешний» сюжет достаточно прост: похоронив отца, менеджер среднего звена Тыну (Таави Ээльмаа) возвращается к жене и работе; с женой у него нелады, на работе творится черт знает что, в частности, шеф приказывает Тыну закрыть завод и уволить рабочих; между тем герой влюбляется в девушку (Равшана Куркова), дочь уволенного русского рабочего, в конце концов у них «происходит любовь», и, разумеется, ничего хорошего из той любви не получается.
«Искушение святого Тыну» должно явить зрителям трагедию человека, который пытается быть добродетельным в современном мире, где это, по сути, невозможно.- -
Качество видео: DVDRip
Формат видео: AVI
Видео: Xvid 720x384 25fps 1297kbps
Аудио 1: MP3 44100Hz stereo 192kbps
Аудио 2: Dolby AC3 48000Hz stereo 256kbps
Формат субтитров: softsub (SRT)

MediaInfo

General
Complete name : S:\Фильмы\Арт-хаус\The Temptation of St. Tony\The Temptation of St. Tony.avi
Format : AVI
Format/Info : Audio Video Interleave
File size : 1.35 GiB
Duration : 1h 49mn
Overall bit rate : 1 758 Kbps
Writing application : VirtualDubMod 1.5.10.2 (build 2540/release)
Writing library : VirtualDubMod build 2540/release
Video
ID : 0
Format : MPEG-4 Visual
Format profile : Advanced Simple@L5
Format settings, BVOP : Yes
Format settings, QPel : No
Format settings, GMC : No warppoints
Format settings, Matrix : Default (H.263)
Codec ID : XVID
Codec ID/Hint : XviD
Duration : 1h 49mn
Bit rate : 1 297 Kbps
Width : 720 pixels
Height : 384 pixels
Display aspect ratio : 1.85:1
Frame rate : 25.000 fps
Color space : YUV
Chroma subsampling : 4:2:0
Bit depth : 8 bits
Scan type : Progressive
Compression mode : Lossy
Bits/(Pixel*Frame) : 0.188
Stream size : 1 020 MiB (74%)
Writing library : XviD 1.2.1 (UTC 2008-12-04)
Audio #1
ID : 1
Format : MPEG Audio
Format version : Version 1
Format profile : Layer 3
Mode : Joint stereo
Codec ID : 55
Codec ID/Hint : MP3
Duration : 1h 49mn
Bit rate mode : Constant
Bit rate : 192 Kbps
Channel(s) : 2 channels
Sampling rate : 44.1 KHz
Compression mode : Lossy
Stream size : 151 MiB (11%)
Alignment : Split accross interleaves
Interleave, duration : 40 ms (1.00 video frame)
Interleave, preload duration : 500 ms
Audio #2
ID : 2
Format : AC-3
Format/Info : Audio Coding 3
Mode extension : CM (complete main)
Format settings, Endianness : Big
Codec ID : 2000
Duration : 1h 49mn
Bit rate mode : Constant
Bit rate : 256 Kbps
Channel(s) : 2 channels
Channel positions : Front: L R
Sampling rate : 48.0 KHz
Bit depth : 16 bits
Compression mode : Lossy
Stream size : 200 MiB (14%)
Alignment : Split accross interleaves
Interleave, duration : 40 ms (1.01 video frame)
Interleave, preload duration : 500 ms

Скриншот c названием фильма

[teatrix.ru].t5941.torrent 
Торрент: Зарегистрирован [ 2015-10-10 09:49 ] · A907BF948A385FCD3F556DEA53F705BE5217FA3C

Скачать .torrent

Скачать

14 KB

Статус: проверено
Скачан: 1 раз
Размер: 1.35 GB
terms.php



Быстрый ответ

Имя:

      
Для отправки сообщений необходимо включить JavaScript
Показать сообщения:    

Текущее время: 09-Дек 08:46

Часовой пояс: UTC + 3


Вы можете начинать темы
Вы можете отвечать на сообщения
Вы не можете редактировать свои сообщения
Вы не можете удалять свои сообщения
Вы не можете голосовать в опросах
Вы не можете прикреплять файлы к сообщениям
Вы можете скачивать файлы