Стюарт: Прошлая жизнь / Stuart: A Life Backwards (Дэвид Эттвуд / David Attwood) [2007, Великобритания, драма, биография, DVDRip] AVO (Сербин)


Статистика раздачи [Обновить пиров]
Размер:  726 MB   |    Зарегистрирован:  1 год 1 месяц   |    Скачан:  0 раз

Полного источника не было: Никогда

 
   
 
 
 

[Цитировать]

Стюарт: Прошлая жизнь / Stuart: A Life Backwards
Страна: Великобритания
Жанр: Драма, Биография
Год выпуска: 2007
Продолжительность:01:27:53
Перевод: Авторский (одноголосый закадровый) [Ю. Сербин]
Оригинальная аудиодорожка: нет
Cубтитры: нет
Режиссер:Дэвид Эттвуд / David Attwood
В ролях: Том Харди, Бенедикт Камбербэтч, Никола Даффетт, Клер-Луис Кордуэлл, Эдна Доре
Описание:2000 год. На одном из собраний благотворительной организации “Помоги бездомным” молодой интеллигент Алекс Мастерс (Бен Камбербатч) знакомится со своим сверстником – бомжом Стюартом Шортером (Том Харди). Стоит сразу заметить, что Стюарт не простой бомж, он – перекрученный калека с мускульной дистрофией и искаженным голосом, а также бывший зек и наркоман. Хотя в целом – отличный парень.
Со временем интеллигент избавляется от страха и отвращения перед новым знакомым, и у них вскоре начинаются вполне товарищеские отношения. Теперь интеллигенту становится даже любопытно, как же Стюарт докатился до подобной жизни. Он начинает опрашивать друзей и родственников бомжа и постепенно узнает страшную и трагичную историю жизни своего приятеля.

Качество: DVDRip
Контейнер: AVI
Видео: 720x400 (1.80:1), 25 fps, XviD build 50 ~1017 kbps avg, 0.14 bit/pixel
Аудио: 48 kHz, MPEG Layer 3, 2 ch, ~128.00 kbps avg

MI

Общее
Полное имя : C:\Users\Пользователь\Downloads\Стюарт Прошлая жизнь DVDRip Некул.avi
Формат : AVI
Формат/Информация : Audio Video Interleave
Размер файла : 726 Мбайт
Продолжительность : 1 ч. 27 м.
Общий поток : 1155 Кбит/сек
Программа кодирования : VirtualDubMod 1.5.10.3 | www.virtualdub-fr.org || (build 2550/release)
Библиотека кодирования : VirtualDubMod build 2550/release
Видео
Идентификатор : 0
Формат : MPEG-4 Visual
Профиль формата : Advanced Simple@L5
Параметр BVOP формата : 2
Параметр QPel формата : Нет
Параметр GMC формата : Без точки перехода
Параметр матрицы формата : Default (H.263)
Идентификатор кодека : XVID
Идентификатор кодека/Подсказка : XviD
Продолжительность : 1 ч. 27 м.
Битрейт : 1017 Кбит/сек
Ширина : 720 пикселей
Высота : 400 пикселей
Соотношение сторон : 16:9
Частота кадров : 25,000 кадров/сек
Цветовое пространство : YUV
Субдискретизация насыщенности : 4:2:0
Битовая глубина : 8 бит
Тип развёртки : Прогрессивная
Метод сжатия : С потерями
Бит/(Пиксели*Кадры) : 0.141
Размер потока : 639 Мбайт (88%)
Библиотека кодирования : XviD 1.2.1 (UTC 2008-12-04)
Аудио
Идентификатор : 1
Формат : MPEG Audio
Версия формата : Version 1
Профиль формата : Layer 3
Идентификатор кодека : 55
Идентификатор кодека/Подсказка : MP3
Продолжительность : 1 ч. 27 м.
Вид битрейта : Постоянный
Битрейт : 128 Кбит/сек
Каналы : 2 канала
Частота : 48,0 КГц
Метод сжатия : С потерями
Размер потока : 80,5 Мбайт (11%)
Выравнивание : Соединение по промежуткам
Продолжительность промежутка : 40 мс. (1,00 видеокадр)
Время предзагрузки промежутка : 504 мс.
Библиотека кодирования : LAME3.99r
Настройки программы : -m s -V 4 -q 2 -lowpass 17 -b 128

Скриншоты

[teatrix.ru].t5942.torrent 
Торрент: Зарегистрирован [ 2015-10-10 09:49 ] · 67712F900F6327915061022819BD83C0A24076AA

Скачать .torrent

Скачать

15 KB

Статус: проверено
Скачан: 0 раз
Размер: 726 MB
terms.php



Быстрый ответ

Имя:

      
Для отправки сообщений необходимо включить JavaScript
Показать сообщения:    

Текущее время: 09-Дек 01:07

Часовой пояс: UTC + 3


Вы можете начинать темы
Вы можете отвечать на сообщения
Вы не можете редактировать свои сообщения
Вы не можете удалять свои сообщения
Вы не можете голосовать в опросах
Вы не можете прикреплять файлы к сообщениям
Вы можете скачивать файлы