Пазолини / Pasolini (Абель Феррара / Abel Ferrara) [2014, Италия, Франция, Бельгия, Драма, DVDRip] Sub Rus + Original Ita


Статистика раздачи [Обновить пиров]
Размер:  1.37 GB   |    Зарегистрирован:  1 год 1 месяц   |    Скачан:  0 раз

Полного источника не было: Никогда

 
   
 
 
 

[Цитировать]

Пазолини / Pasolini
Страна: Италия, Франция, Бельгия
Жанр: Драма
Год выпуска: 2014
Продолжительность: 1:21:26
Перевод: Субтитры nestejatel
Cубтитры: русские, итальянские (hardsub)
Оригинальная аудиодорожка: итальянский
Режиссер: Абель Феррара / Abel Ferrara
В ролях: Уиллем Дефо / Willem Dafoe, Риккардо Скармачио / Riccardo Scamarcio, Нинетто Даволи / Ninetto Davoli
Описание: История последних дней жизни итальянского режиссера Пьер Паоло Пазолини.
Сэмпл: http://sendfile.su/1096458
Качество видео: DVDRip
Формат видео: AVI
Видео: 720*384 (1.85:1), at 25.000 fps, 1 943 Kbps, MPEG-4 Visual (XviD)
Аудио: 448 Kbps, 48.0 KHz, 16 bits, 6 channels, AC-3
Формат субтитров: softsub (SRT)

MediaInfo

General
Complete name : C:\Users\Никита\Videos\Pasolini\Pasolini.avi
Format : AVI
Format/Info : Audio Video Interleave
File size : 1.37 GiB
Duration : 1h 21mn
Overall bit rate : 2 400 Kbps
Writing application : VirtualDubMod 1.5.10.3 | www.virtualdub-fr.org || (build 2550/release)
Writing library : VirtualDubMod build 2550/release
Video
ID : 0
Format : MPEG-4 Visual
Format profile : Advanced Simple@L5
Format settings, BVOP : 1
Format settings, QPel : No
Format settings, GMC : No warppoints
Format settings, Matrix : Default (MPEG)
Codec ID : XVID
Codec ID/Hint : XviD
Duration : 1h 21mn
Bit rate : 1 943 Kbps
Width : 720 pixels
Height : 384 pixels
Display aspect ratio : 1.85:1
Frame rate : 25.000 fps
Color space : YUV
Chroma subsampling : 4:2:0
Bit depth : 8 bits
Scan type : Progressive
Compression mode : Lossy
Bits/(Pixel*Frame) : 0.281
Stream size : 1.10 GiB (81%)
Writing library : XviD 1.2.1 (UTC 2008-12-04)
Audio
ID : 1
Format : AC-3
Format/Info : Audio Coding 3
Mode extension : CM (complete main)
Format settings, Endianness : Big
Codec ID : 2000
Duration : 1h 21mn
Bit rate mode : Constant
Bit rate : 448 Kbps
Channel(s) : 6 channels
Channel positions : Front: L C R, Side: L R, LFE
Sampling rate : 48.0 KHz
Bit depth : 16 bits
Compression mode : Lossy
Stream size : 261 MiB (19%)
Alignment : Split accross interleaves
Interleave, duration : 40 ms (1.00 video frame)
Interleave, preload duration : 500 ms

Скриншот c названием фильма

Скриншоты




Фрагмент субтитров

369
00:36:28,040 --> 00:36:30,486
Позвольте вернуться к первому вопросу.
370
00:36:32,080 --> 00:36:34,606
Вы волшебным образом все стерли:
371
00:36:34,800 --> 00:36:35,687
обязательные школы,
372
00:36:35,880 --> 00:36:37,689
официальные выборы,
373
00:36:37,880 --> 00:36:38,688
даже само телевидение.
374
00:36:40,240 --> 00:36:41,730
Что у вас тогда останется?
375
00:36:44,640 --> 00:36:45,368
Все.
376
00:36:45,560 --> 00:36:46,288
У меня останется все:
377
00:36:46,480 --> 00:36:47,481
я сам,
378
00:36:47,680 --> 00:36:48,841
моя жизнь,
379
00:36:49,040 --> 00:36:50,530
жизнь в этом мире,
380
00:36:50,720 --> 00:36:54,122
зрение, работа, понимание, мои книги
381
00:36:54,320 --> 00:36:55,446
мои фильмы.
382
00:36:55,640 --> 00:36:58,849
Я продолжу снимать кино, даже если останусь
самым последним человеком на земле.
383
00:36:59,040 --> 00:37:00,690
Возможно, я продолжу снимать из-за
384
00:37:00,880 --> 00:37:02,211
того, что мне необходимо это,
385
00:37:02,400 --> 00:37:05,051
из-за того, что мне нравится это
и я буду делать это.
[teatrix.ru].t5946.torrent 
Торрент: Зарегистрирован [ 2015-10-10 09:49 ] · F37243AE118F8E35FF2CD29094CB5A6DD7D28FB1

Скачать .torrent

Скачать

14 KB

Статус: проверено
Скачан: 0 раз
Размер: 1.37 GB
terms.php



Быстрый ответ

Имя:

      
Для отправки сообщений необходимо включить JavaScript
Показать сообщения:    

Текущее время: 04-Дек 02:54

Часовой пояс: UTC + 3


Вы можете начинать темы
Вы можете отвечать на сообщения
Вы не можете редактировать свои сообщения
Вы не можете удалять свои сообщения
Вы не можете голосовать в опросах
Вы не можете прикреплять файлы к сообщениям
Вы можете скачивать файлы