Племя / The Tribe (Мирослав Слабошпицкий) [2014, Украина, Нидерланды, драма, криминал, арт-хаус, WEB-DLRip] ((язык жестов)) + Original Ukr


Статистика раздачи [Обновить пиров]
Размер:  1.47 GB   |    Зарегистрирован:  1 год 1 месяц   |    Скачан:  0 раз

Полного источника не было: Никогда

 
   
 
 
 

[Цитировать]

Племя / The Tribe
Страна: Украина, Нидерланды
Жанр: драма, криминал, арт-хаус
Год выпуска: 2014
Продолжительность: 02:06:40
Перевод: Не требуется (язык жестов)
Cубтитры: нет
Режиссер: Мирослав Слабошпицкий
В ролях: Григорий Фесенко, Яна Новикова, Роза Бабий, Александр Дзядевич, Ярослав Билецкий, Иван Тишко, Александр Осадчий, Александр Сидельников, Александр Паниван, Кирилл Кошик
Описание: Главный герой фильма, Сергей, попадает в специализированный интернат для слабослышащих, где существует криминальная организация, Племя. Он пытается занять свое место в иерархии школы и принимает участие в нескольких ограблениях. Когда Сергей влюбляется в Анну, одну из наложниц Смотрящего, ему приходится нарушить неписанные законы племени...
Каннский кинофестиваль, 2014 год
Победитель (3):
Награда от прессы
Приз France 4 Visionary
Поддержка дистрибуции от Gan Foundation
Номинации: Золотая камера (награда за режиссерский дебют) (Мирослав Слабошпицкий)
Европейская киноакадемия, 2014 год
Победитель: Европейское открытие года

«Племя» — фильм на жестовом языке без субтитров.
«Племя» — дебют Мирослава Слабошпицкого в полном метре.
В картине задействованы 20 глухих персонажей, всех играют непрофессиональные актеры.
Проект финансировали Госкино Украины, Фонд Хуберта Белса Роттердамского кинофестиваля и Фонд Рината Ахметова.
География кастинга была обширной. На роли пробовались претенденты со всей Украины, а также из Гомеля, Рязани, Тольятти, Краснодара.
В фильме нет музыкального сопровождения, как и в любом другом фильме Мирослава Слабошпицкого.
Фильм состоит из 34 эпизодов.
Несколько сцен отсняли во Львове, хотя сам город в фильме не показывают.
Во время подготовительного периода «Племени» Мирослав Слабошпицкий написал сценарий к полнометражному фильму «Авария».
Для проката фильм приобрели Франция, Дания, Япония и Нидерланды.

* Возможно, умельцы по языку жестов сделают субтитры, но это будет не совсем честно по отношению к авторам фильма, которые делали фильм именно "для всех", в надежде, что и обычные люди сердцем поймут глухонемых...

Доп. информация: рип от AndreSweet
Моя благодарность!
Сэмпл: http://multi-up.com/1038411
Качество видео: WEB-DLRip
Формат видео: AVI
Видео: DivX, 720х368, 1454 кбит/с, 25 fps
Аудио: AC3, 192 кбит/с, 2 ch, 48 КГц

MediaInfo

Общее
Полное имя : E:\The.Tribe_2014.WEB-DLRip.avi
Формат : AVI
Формат/Информация : Audio Video Interleave
Размер файла : 1,47 Гбайт
Продолжительность : 2 ч. 6 м.
Общий поток : 1656 Кбит/сек
Программа кодирования : VirtualDubMod 1.5.10.3 | www.virtualdub-fr.org || (build 2550/release)
Библиотека кодирования : VirtualDubMod build 2550/release
Видео
Идентификатор : 0
Формат : MPEG-4 Visual
Профиль формата : Advanced Simple@L5
Параметр BVOP формата : 1
Параметр QPel формата : Нет
Параметр GMC формата : Без точки перехода
Параметр матрицы формата : Default (MPEG)
Идентификатор кодека : DX50
Идентификатор кодека/Подсказка : DivX 5
Продолжительность : 2 ч. 6 м.
Битрейт : 1454 Кбит/сек
Ширина : 720 пикселей
Высота : 368 пикселей
Соотношение сторон : 1,957
Частота кадров : 25,000 кадров/сек
Цветовое пространство : YUV
Субдискретизация насыщенности : 4:2:0
Битовая глубина : 8 бит
Тип развёртки : Прогрессивная
Метод сжатия : С потерями
Бит/(Пиксели*Кадры) : 0.220
Размер потока : 1,29 Гбайт (88%)
Библиотека кодирования : XviD 1.2.1 (UTC 2008-12-04)
Аудио
Идентификатор : 1
Формат : AC-3
Формат/Информация : Audio Coding 3
Расширение режима : CM (complete main)
Параметр Endianness формата : Big
Идентификатор кодека : 2000
Продолжительность : 2 ч. 6 м.
Вид битрейта : Постоянный
Битрейт : 192 Кбит/сек
Каналы : 2 канала
Расположение каналов : Front: L R
Частота : 48,0 КГц
Битовая глубина : 16 бит
Метод сжатия : С потерями
Размер потока : 174 Мбайт (12%)
Выравнивание : Разделение по промежуткам
Продолжительность промежутка : 40 мс. (1,00 видеокадр)
Время предзагрузки промежутка : 500 мс.

Скриншот c названием фильма

[teatrix.ru].t5947.torrent 
Торрент: Зарегистрирован [ 2015-10-10 09:49 ] · 7EB70E46BBD8C2293971BE1BD4A11D887FDB3260

Скачать .torrent

Скачать

15 KB

Статус: проверено
Скачан: 0 раз
Размер: 1.47 GB
terms.php



Быстрый ответ

Имя:

      
Для отправки сообщений необходимо включить JavaScript
Показать сообщения:    

Текущее время: 10-Дек 00:21

Часовой пояс: UTC + 3


Вы можете начинать темы
Вы можете отвечать на сообщения
Вы не можете редактировать свои сообщения
Вы не можете удалять свои сообщения
Вы не можете голосовать в опросах
Вы не можете прикреплять файлы к сообщениям
Вы можете скачивать файлы