Волшебная девочка / Magical Girl (Карлос Вермут / Carlos Vermut) [2014, Испания, триллер, драма, HDRip] AVO


 

[Цитировать]

Волшебная девочка Страна: Испания
Жанр: Триллер, драма
Год выпуска: 2014
Продолжительность: 02:06:55
Перевод: Авторский (одноголосый) А. Алексеев
Cубтитры: нет
Оригинальная аудиодорожка: нет
Режиссер: Карлос Вермут / Carlos Vermut
В ролях: Хавьер Ботет, Барбара Ленни, Хосе Сакристан, Луис Бермехо, Марисоль Мембрильо, Элисабет Хелаберт, Исраэль Элехальде, Хулио Аррохо, Микель Инсуа, Тереса Сория Руано
Описание: 12-летняя Алисия может не стесняясь попросить отца о сигарете и глотке джина. Для нее не существует понятия «слишком рано», потому что нет слова «потом»: девочка тяжело больна. Только костюм любимого японского анимэшного персонажа Юкико может доставить ей настоящую радость. Но волшебное платье стоит реальных денег, которые на фоне всеобщего кризиса кажутся безработному отцу запредельной суммой.-Сэмпл / Кинопоиск / ImDB .-Качество видео: HDRip
Формат видео: AVI
Видео: 720x304 (2.37:1), 24 fps, XviD build 50 ~1188 kbps avg, 0.23 bit/pixel
Аудио: 48 kHz, AC3 Dolby Digital, 3/2 (L,C,R,l,r) + LFE ch, ~448 kbps

MediaInfo

Format : AVI
Format/Info : Audio Video Interleave
File size : 1.46 GiB
Duration : 2h 6mn
Overall bit rate : 1 646 Kbps
Writing application : VirtualDubMod 1.5.10.2 (build 2540/release)
Writing library : VirtualDubMod build 2540/release
Video
ID : 0
Format : MPEG-4 Visual
Format profile : Advanced Simple@L5
Format settings, BVOP : 2
Format settings, QPel : No
Format settings, GMC : No warppoints
Format settings, Matrix : Default (MPEG)
Codec ID : XVID
Codec ID/Hint : XviD
Duration : 2h 6mn
Bit rate : 1 188 Kbps
Width : 720 pixels
Height : 304 pixels
Display aspect ratio : 2.35:1
Frame rate : 24.000 fps
Color space : YUV
Chroma subsampling : 4:2:0
Bit depth : 8 bits
Scan type : Progressive
Compression mode : Lossy
Bits/(Pixel*Frame) : 0.226
Stream size : 1.05 GiB (72%)
Writing library : XviD 1.2.1 (UTC 2008-12-04)
Audio
ID : 1
Format : AC-3
Format/Info : Audio Coding 3
Mode extension : CM (complete main)
Format settings, Endianness : Big
Codec ID : 2000
Duration : 2h 6mn
Bit rate mode : Constant
Bit rate : 448 Kbps
Channel(s) : 6 channels
Channel positions : Front: L C R, Side: L R, LFE
Sampling rate : 48.0 KHz
Bit depth : 16 bits
Compression mode : Lossy
Stream size : 407 MiB (27%)
Alignment : Split accross interleaves
Interleave, duration : 42 ms (1.00 video frame)
Interleave, preload duration : 500 ms

Скриншот c названием фильма

Скриншоты




Показать сообщения:    

Текущее время: 05-Дек 17:30

Часовой пояс: UTC + 3


Вы не можете начинать темы
Вы не можете отвечать на сообщения
Вы не можете редактировать свои сообщения
Вы не можете удалять свои сообщения
Вы не можете голосовать в опросах
Вы не можете прикреплять файлы к сообщениям
Вы не можете скачивать файлы