Самба Траоре / Samba Traoré (Идрисса Уедраого / Idrissa Ouedraogo) [1992, Буркина-Фасо, Франция, Швейцария, драма, DVDRip] Original + Sub Rus, Eng


Статистика раздачи [Обновить пиров]
Размер:  1.46 GB   |    Зарегистрирован:  1 год 1 месяц   |    Скачан:  0 раз

Полного источника не было: Никогда

 
   
 
 
 

[Цитировать]

Самба Траоре / Samba Traoré
Страна: Буркина-Фасо, Франция, Швейцария
Жанр: Драма
Год выпуска: 1992
Продолжительность: 01:21:49
Перевод: Субтитры
Cубтитры: русские
Оригинальная аудиодорожка: Моо́ре
Режиссер: Идрисса Уедраого / Idrissa Ouedraogo
В ролях: Бакари Сангаре, Мариам Каба, Абдулайе Комбудри, Ирена Тассембедо, Мумуни Кампаоре, Сибиду Уедраого, Крин Казимир Траоре
Описание: Совсем не типичный для кинематографа Тропической Африки (тяготеющего больше к созерцательности и неторопливому ритму повествования) темпераментный и остросюжетный фильм. Использовав приемы американского вестерна и западноевропейского гангстерского фильма, Уедраого жестко и с суровой достоверностью воссоздал печальную судьбу потерявшего в городе нравственные ориентиры молодого африканца, который после разбойного нападения на станцию техобслуживания скрылся в родной деревне и, обретя на короткое время дружбу, любовь и человеческое к себе отношение, все-таки не смог избежать роковой расплаты за свое криминальное прошлое.
Картина стала знаменательным шагом к мировому признанию режиссера и заслужила на Берлинском МКФ 1993 г. "Серебряного медведя".
Доп. информация: В раздаче также присутствуют исходные английские субтитры
Сэмпл: http://sendfile.su/1095112
Качество видео: DVDRip
Формат видео: AVI
Видео: 688x416 (1.65:1), 25 fps, XviD build 50 ~2351 kbps avg, 0.33 bit/pixel
Аудио: 48 kHz, AC3 Dolby Digital, 2/0 (L,R) ch, ~192.00 kbps avg
Формат субтитров: softsub (SRT)

Фрагмент субтитров

313
00:40:13,440 --> 00:40:16,880
Дома, рассказывает всякие байки Али.
314
00:40:18,519 --> 00:40:21,680
Салиф, ты знаешь, кем работал
Самба в городе?
315
00:40:23,079 --> 00:40:26,440
Думаю, он работал на
банановой плантации.
316
00:40:27,239 --> 00:40:30,160
Мне он говорит то же,
но почему-то я не верю ему.
317
00:40:32,199 --> 00:40:34,200
Руки у него слишком мягкие...
318
00:40:34,400 --> 00:40:37,640
К чему это ты?
319
00:40:37,840 --> 00:40:40,080
Думаю, он нас обманывает.
320
00:40:41,280 --> 00:40:43,640
Ему снятся кошмары,
321
00:40:43,880 --> 00:40:45,680
как будто что-то его преследует...
322
00:40:46,880 --> 00:40:48,280
Что смешного?
323
00:40:48,599 --> 00:40:51,560
Вы, женщины, столько всего выдумываете.
324
00:40:52,480 --> 00:40:57,200
На банановой платнации
работают в перчатках.
325
00:40:57,519 --> 00:41:01,120
И любому могут сниться страшные сны.
326
00:41:02,280 --> 00:41:04,640
Ты его защищаешь,
потому что он твой друг.
327
00:41:08,599 --> 00:41:11,200
Поторопитесь, уже поздно.
328
00:41:16,920 --> 00:41:20,000
И Мориба пошел спать,
329
00:41:20,360 --> 00:41:22,200
очень печальный.
330
00:41:22,960 --> 00:41:25,480
Никому не сказав, его отец
331
00:41:26,079 --> 00:41:29,080
пошел и укоротил брюки,
332
00:41:29,840 --> 00:41:33,560
и его мать тоже
пошла и укоротила их,
333
00:41:34,119 --> 00:41:37,640
его сестры тоже подошли
и подрезали их.

MediaInfo

General
Complete name : D:\Torrents\Samba Traore\samba traore.avi
Format : AVI
Format/Info : Audio Video Interleave
File size : 1.46 GiB
Duration : 1h 21mn
Overall bit rate : 2 553 Kbps
Writing application : VirtualDubMod 1.5.10.3 | www.virtualdub-fr.org || (build 2550/release)
Writing library : VirtualDubMod build 2550/release
Video
ID : 0
Format : MPEG-4 Visual
Format profile : Advanced Simple@L5
Format settings, BVOP : 2
Format settings, QPel : No
Format settings, GMC : No warppoints
Format settings, Matrix : Default (MPEG)
Codec ID : DX50
Codec ID/Hint : DivX 5
Duration : 1h 21mn
Bit rate : 2 351 Kbps
Width : 688 pixels
Height : 416 pixels
Display aspect ratio : 1.654
Frame rate : 25.000 fps
Color space : YUV
Chroma subsampling : 4:2:0
Bit depth : 8 bits
Scan type : Progressive
Compression mode : Lossy
Bits/(Pixel*Frame) : 0.329
Stream size : 1.34 GiB (92%)
Writing library : XviD 1.2.1 (UTC 2008-12-04)
Audio
ID : 1
Format : AC-3
Format/Info : Audio Coding 3
Mode extension : CM (complete main)
Format settings, Endianness : Big
Codec ID : 2000
Duration : 1h 21mn
Bit rate mode : Constant
Bit rate : 192 Kbps
Channel(s) : 2 channels
Channel positions : Front: L R
Sampling rate : 48.0 KHz
Bit depth : 16 bits
Compression mode : Lossy
Stream size : 112 MiB (8%)
Alignment : Split accross interleaves
Interleave, duration : 40 ms (1.00 video frame)
Interleave, preload duration : 500 ms

Скриншот c названием фильма

Скриншоты









[teatrix.ru].t5951.torrent 
Торрент: Зарегистрирован [ 2015-10-10 09:49 ] · C73597103C25A9EECA48E34B8AE6AE0FF4603E07

Скачать .torrent

Скачать

15 KB

Статус: проверено
Скачан: 0 раз
Размер: 1.46 GB
terms.php



Быстрый ответ

Имя:

      
Для отправки сообщений необходимо включить JavaScript
Показать сообщения:    

Текущее время: 10-Дек 04:12

Часовой пояс: UTC + 3


Вы можете начинать темы
Вы можете отвечать на сообщения
Вы не можете редактировать свои сообщения
Вы не можете удалять свои сообщения
Вы не можете голосовать в опросах
Вы не можете прикреплять файлы к сообщениям
Вы можете скачивать файлы