Женщина под влиянием / Женщина не в себе / A woman under the influence (Джон Кассаветес / John Cassavetes) [1974, США, драма, BDRip-AVC] MVO + DVO (ТК "Культура") + AVO (Кузнецов) + Original (Eng) + Subs (Eng)


 

[Цитировать]

Женщина под влиянием / Женщина не в себе / A woman under the influence- Страна: США
Жанр: драма
Год выпуска: 1974
Продолжительность: 02:27:03-Перевод №1: Профессиональный (многоголосый, закадровый)
Перевод №2: Профессиональный (двухголосый закадровый) - ТК "Культура"
Перевод №3: Авторский (одноголосый закадровый) - Сергей Кузнецов - отдельно в раздаче
Оригинальная аудиодорожка: English
Cубтитры: English (full)
Навигация по главам: присутствует - 23 главы-Режиссер: Джон Кассаветес / John Cassavetes
В ролях: Питер Фальк, Джина Роулендс, Фред Дрэйпер, Леди Роулендс, Кэтерин Кассаветис, Мэттью Лаборто, Мэттью Кэссел, Кристина Грисанти, О.Г. Данн, Марио Галло-Описание: Мейбл Лонгетти — патологически неуверенная в себе женщина на грани нервного срыва, переживающие непростой этап в отношениях со своим мужем, Ником в попытках сохранить брак.-
Download sample-Качество видео: BDRip-AVC
Core_soul
Формат: MKV-Видео: 1 068x578 (1.85:1), 23.976 fps, H.264 ~4 500 kbps avg, 0.300 bit/pixel
Аудио №1: 48.0 kHz, AC3 Dolby Digital, 2/0 (L,R) ch, ~256 kbps | Профессиональный (многоголосый, закадровый)
Аудио №2: 48.0 kHz, AC3 Dolby Digital, 2/0 (L,R) ch, ~160 kbps | Профессиональный (двухголосый закадровый) - ТК "Культура"
Аудио №3: 48.0 kHz, AC3 Dolby Digital, 2/0 (L,R) ch, ~192 kbps | Авторский (одноголосый закадровый) - С.Кузнецов - отдельно в раздаче
Аудио №4: 48.0 kHz, AC3 Dolby Digital, 1/0 (C) ch, ~96 kbps | English
Субтитры №1: English (full) | *.srt-

MediaInfo

General
Unique ID : 180039826122364765904310569518697197463 (0x877268C35F1E47C680D1AA864942AF97)
Complete name : D:\Фильмы\Рипы\A woman under the influence.1974.BDRip-AVC.eFK tRuAVC.mkv
Format : Matroska
Format version : Version 4 / Version 2
File size : 5.20 GiB
Duration : 2h 27mn
Overall bit rate : 5 058 Kbps
Movie name : Женщина под влиянием / Женщина не в себе / A woman under the influence (1974)
Encoded date : UTC 2015-03-11 08:42:36
Writing application : mkvmerge v7.6.0 ('Garden of Dreams') 64bit built on Feb 8 2015 13:04:34
Writing library : libebml v1.3.1 + libmatroska v1.4.2
Attachements : cover.png
DURATION : 02:27:03.040000000
NUMBER_OF_FRAMES : 275720
NUMBER_OF_BYTES : 105876480
_STATISTICS_WRITING_APP : mkvmerge v7.6.0 ('Garden of Dreams') 64bit built on Feb 8 2015 13:04:34
_STATISTICS_WRITING_DATE_UT : 2015-03-11 08:42:36
_STATISTICS_TAGS : BPS DURATION NUMBER_OF_FRAMES NUMBER_OF_BYTES
Video
ID : 1
Format : AVC
Format/Info : Advanced Video Codec
Format profile : High@L4.1
Format settings, CABAC : Yes
Format settings, ReFrames : 12 frames
Codec ID : V_MPEG4/ISO/AVC
Duration : 2h 27mn
Bit rate : 4 446 Kbps
Width : 1 068 pixels
Height : 578 pixels
Display aspect ratio : 1.85:1
Frame rate mode : Constant
Frame rate : 23.976 fps
Color space : YUV
Chroma subsampling : 4:2:0
Bit depth : 8 bits
Scan type : Progressive
Bits/(Pixel*Frame) : 0.300
Stream size : 4.57 GiB (88%)
Title : eFK tRuAVC
Writing library : x264 core 144 r2525kMod 40bb568
Encoding settings : cabac=1 / ref=12 / deblock=1:-3:-3 / analyse=0x3:0x133 / me=umh / subme=11 / psy=1 / fade_compensate=0.00 / psy_rd=1.04:0.00 / mixed_ref=1 / me_range=32 / chroma_me=1 / trellis=2 / 8x8dct=1 / cqm=0 / deadzone=21,11 / fast_pskip=0 / chroma_qp_offset=-2 / threads=12 / lookahead_threads=3 / sliced_threads=0 / nr=0 / decimate=1 / interlaced=0 / bluray_compat=0 / constrained_intra=0 / fgo=0 / bframes=16 / b_pyramid=2 / b_adapt=2 / b_bias=0 / direct=3 / weightb=1 / open_gop=0 / weightp=2 / keyint=250 / keyint_min=23 / scenecut=40 / intra_refresh=0 / rc_lookahead=60 / rc=crf / mbtree=0 / crf=20.5500 / qcomp=0.65 / qpmin=0 / qpmax=69 / qpstep=4 / vbv_maxrate=50000 / vbv_bufsize=62500 / crf_max=0.0 / nal_hrd=none / filler=0 / ip_ratio=1.40 / pb_ratio=1.30 / aq=3:0.70
Language : English
Default : Yes
Forced : No
Color primaries : BT.709
Transfer characteristics : BT.709
Matrix coefficients : BT.709
Color range : Limited
DURATION : 02:27:03.023000000
NUMBER_OF_FRAMES : 211541
NUMBER_OF_BYTES : 5009237079
_STATISTICS_WRITING_APP : mkvmerge v7.6.0 ('Garden of Dreams') 64bit built on Feb 8 2015 13:04:34
_STATISTICS_WRITING_DATE_UT : 2015-03-11 08:42:36
_STATISTICS_TAGS : BPS DURATION NUMBER_OF_FRAMES NUMBER_OF_BYTES
Audio #1
ID : 2
Format : AC-3
Format/Info : Audio Coding 3
Mode extension : CM (complete main)
Format settings, Endianness : Big
Codec ID : A_AC3
Duration : 2h 27mn
Bit rate mode : Constant
Bit rate : 256 Kbps
Channel(s) : 2 channels
Channel positions : Front: L R
Sampling rate : 48.0 KHz
Bit depth : 16 bits
Compression mode : Lossy
Stream size : 269 MiB (5%)
Title : MVO
Language : Russian
Default : Yes
Forced : No
Audio #2
ID : 3
Format : AC-3
Format/Info : Audio Coding 3
Mode extension : CM (complete main)
Format settings, Endianness : Big
Codec ID : A_AC3
Duration : 2h 27mn
Bit rate mode : Constant
Bit rate : 160 Kbps
Channel(s) : 2 channels
Channel positions : Front: L R
Sampling rate : 48.0 KHz
Bit depth : 16 bits
Compression mode : Lossy
Stream size : 168 MiB (3%)
Title : DVO (ТК "Культура")
Language : Russian
Default : No
Forced : No
Audio #3
ID : 4
Format : AC-3
Format/Info : Audio Coding 3
Mode extension : CM (complete main)
Format settings, Endianness : Big
Codec ID : A_AC3
Duration : 2h 27mn
Bit rate mode : Constant
Bit rate : 96.0 Kbps
Channel(s) : 1 channel
Channel positions : Front: C
Sampling rate : 48.0 KHz
Bit depth : 16 bits
Compression mode : Lossy
Stream size : 101 MiB (2%)
Language : English
Default : No
Forced : No
Text
ID : 5
Format : UTF-8
Codec ID : S_TEXT/UTF8
Codec ID/Info : UTF-8 Plain Text
Title : full
Language : English
Default : No
Forced : No
Menu
00:00:00.000 : :Chapter 01
00:11:02.286 : :Chapter 02
00:17:24.084 : :Chapter 03
00:26:19.536 : :Chapter 04
00:34:53.925 : :Chapter 05
00:40:42.815 : :Chapter 06
00:44:57.569 : :Chapter 07
00:51:50.398 : :Chapter 08
00:56:40.271 : :Chapter 09
01:05:58.329 : :Chapter 10
01:10:49.286 : :Chapter 11
01:17:29.561 : :Chapter 12
01:24:19.721 : :Chapter 13
01:29:26.110 : :Chapter 14
01:34:17.234 : :Chapter 15
01:39:00.100 : :Chapter 16
01:49:39.406 : :Chapter 17
01:55:40.016 : :Chapter 18
02:01:07.134 : :Chapter 19
02:07:31.769 : :Chapter 20
02:13:04.351 : :Chapter 21
02:18:29.217 : :Chapter 22
02:27:02.772 : :Chapter 23

x264 log

x264 [info]: frame I:1002 Avg QP:20.91 size: 66705
x264 [info]: frame P:38236 Avg QP:22.34 size: 38374
x264 [info]: frame B:172303 Avg QP:24.63 size: 20169
x264 [info]: consecutive B-frames: 0.8% 1.1% 4.6% 10.6% 10.1% 55.5% 3.5% 1.7% 1.7% 1.7% 2.0% 5.1% 0.6% 0.2% 0.3% 0.3% 0.2%
x264 [info]: mb I I16..4: 3.9% 87.2% 8.9%
x264 [info]: mb P I16..4: 0.4% 18.0% 1.1% P16..4: 30.1% 35.7% 12.5% 0.8% 0.0% skip: 1.4%
x264 [info]: mb B I16..4: 0.1% 2.6% 0.1% B16..8: 43.7% 22.0% 4.9% direct: 8.2% skip:18.4% L0:48.2% L1:44.8% BI: 7.0%
x264 [info]: 8x8 transform intra:92.4% inter:67.0%
x264 [info]: direct mvs spatial:100.0% temporal:0.0%
x264 [info]: coded y,uvDC,uvAC intra: 93.9% 87.0% 48.3% inter: 48.5% 36.5% 1.9%
x264 [info]: i16 v,h,dc,p: 33% 18% 3% 46%
x264 [info]: i8 v,h,dc,ddl,ddr,vr,hd,vl,hu: 9% 6% 7% 11% 15% 14% 14% 12% 12%
x264 [info]: i4 v,h,dc,ddl,ddr,vr,hd,vl,hu: 32% 4% 3% 7% 12% 13% 11% 9% 8%
x264 [info]: i8c dc,h,v,p: 36% 23% 19% 21%
x264 [info]: Weighted P-Frames: Y:10.9% UV:5.6%
x264 [info]: ref P L0: 35.6% 10.7% 18.2% 7.8% 6.7% 4.9% 4.6% 2.5% 2.5% 2.1% 2.1% 1.9% 0.3% 0.0%
x264 [info]: ref B L0: 60.1% 14.0% 8.2% 4.6% 3.5% 3.0% 2.5% 1.6% 1.4% 0.8% 0.3%
x264 [info]: ref B L1: 89.9% 10.1%
x264 [info]: kb/s:4541.97
x264 [total]: encoded 211541 frames, 6.74 fps, 4541.97 kb/s, duration 8:42:47.91

Comparison

Source

Encode



Показать сообщения:    

Текущее время: 11-Дек 03:15

Часовой пояс: UTC + 3


Вы не можете начинать темы
Вы не можете отвечать на сообщения
Вы не можете редактировать свои сообщения
Вы не можете удалять свои сообщения
Вы не можете голосовать в опросах
Вы не можете прикреплять файлы к сообщениям
Вы не можете скачивать файлы