Аталанта / L'Atalante (Жан Виго / Jean Vigo) [1934, Франция, мелодрама, драма, BDRip] MVO + Original Fre + Sub Rus, Eng


 

[Цитировать]

Аталанта / L'Atalante- Год выпуска: 1934
Страна: Франция
Жанр: мелодрама, драма
Продолжительность: 01:29:14
Перевод: Профессиональный (многоголосый, закадровый)
+ Оригинальная французская звуковая дорожка
Cубтитры: Русские, английские (внешние srt*)-Режиссер: Жан Виго / Jean Vigo
В ролях: Мишель Симон, Дита Парло, Жан Дасте, Жиль Маргаритис, Луи Лефевр, Морис Жиль, Рафаэль Дилижан, Клод Авлин, Рене Блех, Лу Бонен
О фильме: Непритязательная житейская история женитьбы капитана баржи «Аталанта» Жана на деревенской девушке Жюльетте, их свадебного путешествия по каналам Франции к Парижу в сопровождении юнги-несмышленыша и несуразного «морского волка» папаши Жюля…-Релиз:
Автор: Gellard
Качество: BDRip (источник: / BD-Remux / 1080p)
Формат: AVI
Видео: 704x528 (1.33:1), 23.976 fps, XviD build 65 ~2026 kbps avg, 0.23 bit/pixel
Аудио #01: 48 kHz, AC3 Dolby Digital, 2/0 (L,R), ~192.00 kbps avg rus
Аудио #02: 48 kHz, AC3 Dolby Digital, 1/0 (C), ~96.00 kbps avg fra
Размер: 1486.84 Mb (1/3 DVD-R)
Скачать: Семпл-

Кадры из фильма


-

Mi

Формат : AVI
Формат/Информация : Audio Video Interleave
Размер файла : 1,45 Гбайт
Продолжительность : 1 ч. 29 м.
Общий поток : 2329 Кбит/сек
Название фильма : Аталанта / L'Atalante (1934) BDRip
Режиссёр : Gellard
Жанр : мелодрама, драма
Программа кодирования : VirtualDubMod 1.5.10.2 (build 2542/release)
Примечание : 01.03.2015
Видео
Идентификатор : 0
Формат : MPEG-4 Visual
Профиль формата : Advanced Simple@L5
Параметр BVOP формата : 1
Параметр QPel формата : Нет
Параметр GMC формата : Без точки перехода
Параметр матрицы формата : Выборочная
Идентификатор кодека : XVID
Идентификатор кодека/Подсказка : XviD
Продолжительность : 1 ч. 29 м.
Битрейт : 2027 Кбит/сек
Ширина : 704 пикселя
Высота : 528 пикселей
Соотношение сторон : 4:3
Частота кадров : 23,976 кадра/сек
Цветовое пространство : YUV
Субдискретизация насыщенности : 4:2:0
Битовая глубина : 8 бит
Тип развёртки : Прогрессивная
Метод сжатия : С потерями
Бит/(Пиксели*Кадры) : 0.227
Размер потока : 1,26 Гбайт (87%)
Библиотека кодирования : XviD 65
Аудио #1
Идентификатор : 1
Формат : AC-3
Формат/Информация : Audio Coding 3
Расширение режима : CM (complete main)
Параметр Endianness формата : Big
Идентификатор кодека : 2000
Продолжительность : 1 ч. 29 м.
Вид битрейта : Постоянный
Битрейт : 192 Кбит/сек
Каналы : 2 канала
Расположение каналов : Front: L R
Частота : 48,0 КГц
Битовая глубина : 16 бит
Метод сжатия : С потерями
Размер потока : 123 Мбайт (8%)
Выравнивание : Разделение по промежуткам
Продолжительность промежутка : 42 мс. (1,00 видеокадр)
Время предзагрузки промежутка : 500 мс.
Аудио #2
Идентификатор : 2
Формат : AC-3
Формат/Информация : Audio Coding 3
Расширение режима : CM (complete main)
Параметр Endianness формата : Big
Идентификатор кодека : 2000
Продолжительность : 1 ч. 29 м.
Вид битрейта : Постоянный
Битрейт : 96,0 Кбит/сек
Каналы : 1 канал
Расположение каналов : Front: C
Частота : 48,0 КГц
Битовая глубина : 16 бит
Метод сжатия : С потерями
Размер потока : 61,3 Мбайт (4%)
Выравнивание : Разделение по промежуткам
Продолжительность промежутка : 42 мс. (1,00 видеокадр)
Время предзагрузки промежутка : 500 мс.
-



Показать сообщения:    

Текущее время: 08-Дек 23:06

Часовой пояс: UTC + 3


Вы не можете начинать темы
Вы не можете отвечать на сообщения
Вы не можете редактировать свои сообщения
Вы не можете удалять свои сообщения
Вы не можете голосовать в опросах
Вы не можете прикреплять файлы к сообщениям
Вы не можете скачивать файлы