Гималаи – там, где живёт ветер / Himalayaeui Sonyowa / Himalaya, Where the Wind Dwells (Чон Су Иль / Soo-il Jeon) [2008, Корея Южная, Франция, драма, DVDRip] VO + Sub Rus + Original Kor


Статистика раздачи [Обновить пиров]
Размер:  1.7 GB   |    Зарегистрирован:  1 год 1 месяц   |    Скачан:  0 раз

Полного источника не было: Никогда

 
   
 
 
 

[Цитировать]

Гималаи – там, где живёт ветер / Himalayaeui Sonyowa
Страна: Корея Южная, Франция
Жанр: драма
Год выпуска: 2008
Продолжительность: 01:34:25
Озвучка: Одноголосая закадровая (FassaD)
Cубтитры: Русские
Оригинальная аудиодорожка: Корейская
Режиссер: Джеон Соо Ил / Soo-il Jeon
В ролях: Мин-Сик Чои, Hamo Gurung, Namgya Gurung, Tsering Kipale Gurung, Tenjing Sherpa
Описание: Руководитель компании из Южной Кореи приезжает в Непал. Одетый в офисный костюм и туфли, он отправляется в путь в отдаленную деревушку, где остается на несколько дней в доме местной семьи. Маленький мальчик — единственный, с кем у него складывается общение на ломаном английском.
Находясь в полной изоляции от мира, он проводит несколько необычных для себя дней в окружении гор и ветра. Что привело его сюда, — желание отдохнуть от суетной городской жизни или некая тайная миссия?
Завораживающий медитативный ритм повседневности в Гималаях открывает для него много нового — в мироустройстве и в себе.
Тип релиза: DVDRip
Контейнер: AVI
Видео: XviD 720x384 23,976fps 1665kbps
Аудио: AC3, 448Kbps, 6ch, 48.0 KHz Язык Русский (в составе контейнера)
Аудио 2: AC3, 448Kbps, 6ch, 48.0 KHz Язык Корейский

MediaInfo

Общее
Полное имя : D:\FassaD\Гималаи – там, где живёт ветер (2008)\[FanDub]_Himalaya_2008_[480p_h264]_[FassaD].avi
Формат : AVI
Формат/Информация : Audio Video Interleave
Размер файла : 1,70 Гбайт
Продолжительность : 1 ч. 34 м.
Общий поток : 2575 Кбит/сек
Видео
Идентификатор : 0
Формат : MPEG-4 Visual
Профиль формата : Advanced Simple@L5
Параметр BVOP формата : 2
Параметр QPel формата : Нет
Параметр GMC формата : Без точки перехода
Параметр матрицы формата : Default (MPEG)
Идентификатор кодека : XVID
Идентификатор кодека/Подсказка : XviD
Продолжительность : 1 ч. 34 м.
Битрейт : 1665 Кбит/сек
Ширина : 720 пикселей
Высота : 384 пикселя
Соотношение сторон : 1,85:1
Частота кадров : 23,976 кадра/сек
Цветовое пространство : YUV
Субдискретизация насыщенности : 4:2:0
Битовая глубина : 8 бит
Тип развёртки : Прогрессивная
Метод сжатия : С потерями
Бит/(Пиксели*Кадры) : 0.251
Размер потока : 1,10 Гбайт (65%)
Библиотека кодирования : XviD 64
Аудио #1
Идентификатор : 1
Формат : AC-3
Формат/Информация : Audio Coding 3
Расширение режима : CM (complete main)
Параметр Endianness формата : Big
Идентификатор кодека : 2000
Продолжительность : 1 ч. 34 м.
Вид битрейта : Постоянный
Битрейт : 448 Кбит/сек
Каналы : 6 каналов
Расположение каналов : Front: L C R, Side: L R, LFE
Частота : 48,0 КГц
Битовая глубина : 16 бит
Метод сжатия : С потерями
Размер потока : 303 Мбайт (17%)
Выравнивание : Разделение по промежуткам
Продолжительность промежутка : 42 мс. (1,00 видеокадр)
Время предзагрузки промежутка : 500 мс.
Аудио #2
Идентификатор : 2
Формат : AC-3
Формат/Информация : Audio Coding 3
Расширение режима : CM (complete main)
Параметр Endianness формата : Big
Идентификатор кодека : 2000
Продолжительность : 1 ч. 34 м.
Вид битрейта : Постоянный
Битрейт : 448 Кбит/сек
Каналы : 6 каналов
Расположение каналов : Front: L C R, Side: L R, LFE
Частота : 48,0 КГц
Битовая глубина : 16 бит
Метод сжатия : С потерями
Размер потока : 303 Мбайт (17%)
Выравнивание : Разделение по промежуткам
Продолжительность промежутка : 42 мс. (1,00 видеокадр)
Время предзагрузки промежутка : 500 мс.

Скриншоты

[teatrix.ru].t5954.torrent 
Торрент: Зарегистрирован [ 2015-10-10 09:49 ] · CD1667F7D22A61FEBD41FBB5ACBAE1CCAA1C6F66

Скачать .torrent

Скачать

18 KB

Статус: проверено
Скачан: 0 раз
Размер: 1.7 GB
terms.php



Быстрый ответ

Имя:

      
Для отправки сообщений необходимо включить JavaScript
Показать сообщения:    

Текущее время: 03-Дек 09:51

Часовой пояс: UTC + 3


Вы можете начинать темы
Вы можете отвечать на сообщения
Вы не можете редактировать свои сообщения
Вы не можете удалять свои сообщения
Вы не можете голосовать в опросах
Вы не можете прикреплять файлы к сообщениям
Вы можете скачивать файлы