Одержимость / Whiplash (Дэмьен Шазелл / Damien Chazelle) [2014, США, музыка, драма, BDRip] MVO (iTunes) + Original Eng + Sub (Rus, Ukr, Eng)


 

[Цитировать]

-Одержимость / Whiplash Страна: США
Студия: Blumhouse Productions, Bold Films, Right of Way Films
Жанр: Драма, музыка
Год выпуска: 2014
Продолжительность: 01:46:45-Перевод : Профессиональный (многоголосый, закадровый) iTunes Russia
Оригинальная аудиодорожка: английская
Cубтитры: русские, украинские, английские
Режиссер: Дэмьен Шазелл / Damien Chazelle
В ролях: Майлз Теллер, Дж.К. Симмонс, Пол Райзер, Мелисса Бенойст, Остин Стоуэлл, Нат Лэнг, Крис Малки, Дэймон Гаптон, Макс Кэш, Сюанн Споук
Описание: Эндрю мечтает стать великим. Казалось бы, вот-вот его мечта осуществится. Юношу замечает настоящий гений, дирижер лучшего в стране оркестра. Желание Эндрю добиться успеха быстро становится одержимостью, а безжалостный наставник продолжает подталкивать его все дальше и дальше за пределы человеческих возможностей. Кто выйдет победителем из этой схватки?-
Сэмпл: скачать-Релиз от -
Автор рипа: Elheym
Качество: BDRip (источник: / Blu-ray Remux [WHIPLASH_2014_REMUX_HDCLUB] / 1080p)
Контейнер: AVI
Видео: 720x304 (2.37:1), 23.976 fps, XviD build 65 ~2152 kbps avg, 0.41 bit/pixel
Аудио #1: Русский: AC3, 5.1, 48 kHz, ~384 Кбит/с | Профессиональный (многоголосый, закадровый) iTunes Russia |
Аудио #2: Английский: AC3, 5.1, 48 kHz, ~384 Кбит/с | Оригинал |
Субтитры: русские (полные: iTunes, MartinaG), украинские (полные), английские (полные х2, полные SDH х2, полные SDH цветные х2)
Размер: 2235.51 Mb (1/2 DVD)

MediaInfo

Полное имя : Oderzhimost.2014.DUAL.BDRip.XviD.AC3.-HQCLUB.avi
Формат : AVI
Формат/Информация : Audio Video Interleave
Профиль формата : OpenDML
Размер файла : 2,18 Гбайт
Продолжительность : 1 ч. 46 м.
Общий поток : 2927 Кбит/сек
Название фильма : Одержимость / Whiplash (2014) BDRip
Режиссёр : Elheym
Программа кодирования : VirtualDubMod 1.5.10.2 (build 2540/release)
Библиотека кодирования : VirtualDubMod build 2540/release
Правообладатель : HQCLUB
Примечание : 08.03.2015
Видео
Идентификатор : 0
Формат : MPEG-4 Visual
Профиль формата : Advanced Simple@L5
Параметр BVOP формата : 1
Параметр QPel формата : Нет
Параметр GMC формата : Без точки перехода
Параметр матрицы формата : Выборочная
Идентификатор кодека : XVID
Идентификатор кодека/Подсказка : XviD
Продолжительность : 1 ч. 46 м.
Битрейт : 2142 Кбит/сек
Ширина : 720 пикселей
Высота : 304 пикселя
Соотношение сторон : 2,35:1
Частота кадров : 23,976 кадра/сек
Цветовое пространство : YUV
Субдискретизация насыщенности : 4:2:0
Битовая глубина : 8 бит
Тип развёртки : Прогрессивная
Метод сжатия : С потерями
Бит/(Пиксели*Кадры) : 0.408
Размер потока : 1,60 Гбайт (73%)
Библиотека кодирования : XviD 65
Аудио #1
Идентификатор : 1
Формат : AC-3
Формат/Информация : Audio Coding 3
Расширение режима : CM (complete main)
Параметр Endianness формата : Big
Идентификатор кодека : 2000
Продолжительность : 1 ч. 46 м.
Вид битрейта : Постоянный
Битрейт : 384 Кбит/сек
Каналы : 6 каналов
Расположение каналов : Front: L C R, Side: L R, LFE
Частота : 48,0 КГц
Битовая глубина : 16 бит
Метод сжатия : С потерями
Размер потока : 293 Мбайт (13%)
Выравнивание : Разделение по промежуткам
Продолжительность промежутка : 42 мс. (1,00 видеокадр)
Время предзагрузки промежутка : 500 мс.
Аудио #2
Идентификатор : 2
Формат : AC-3
Формат/Информация : Audio Coding 3
Расширение режима : CM (complete main)
Параметр Endianness формата : Big
Идентификатор кодека : 2000
Продолжительность : 1 ч. 46 м.
Вид битрейта : Постоянный
Битрейт : 384 Кбит/сек
Каналы : 6 каналов
Расположение каналов : Front: L C R, Side: L R, LFE
Частота : 48,0 КГц
Битовая глубина : 16 бит
Метод сжатия : С потерями
Размер потока : 293 Мбайт (13%)
Выравнивание : Разделение по промежуткам
Продолжительность промежутка : 42 мс. (1,00 видеокадр)
Время предзагрузки промежутка : 500 мс.

Скриншоты

Перевод Алексея Матвеева доступен благодаря: будулайроманов. Перевод: MartinaG. Работа со звуком: Переводман. Содержит ненормативную лексику.
Украинские субтитры доступны благодаря Milvus, спеціально для сайта hurtom. Редактирование и синхронизация - Elheym



Показать сообщения:    

Текущее время: 08-Дек 11:00

Часовой пояс: UTC + 3


Вы не можете начинать темы
Вы не можете отвечать на сообщения
Вы не можете редактировать свои сообщения
Вы не можете удалять свои сообщения
Вы не можете голосовать в опросах
Вы не можете прикреплять файлы к сообщениям
Вы не можете скачивать файлы