Вернуться домой / Getting Home / Luo ye gui gen (Ян Чжан / Yang Zhang) [2007, Китай, Гонконг, комедия, драма, DVDRip] VO (D.I.M.)


Статистика раздачи [Обновить пиров]
Размер:  749 MB   |    Зарегистрирован:  1 год 1 месяц   |    Скачан:  0 раз

Полного источника не было: Никогда

 
   
 
 
 

[Цитировать]

Вернуться Домой / Getting Home / Luo ye gui gen- -Страна: Китай, Гонконг
Жанр: комедия, драма
Год выпуска: 2007
Продолжительность: 01:49:15-Перевод: Одноголосый закадровый [D.I.M.]-Cубтитры: нет
Оригинальная аудиодорожка: нет
Режиссер: Ян Чжан / Yang Zhang
В ролях: Бэньшань Чжао, Сун Даньдань, Дэган Го, Ху Цзюнь, Хайин Сунь, Ляо Фань, Юй Ся, Ма У, Цзиньшань Лю...
Описание: Рабочий Лю, выпив лишнего, тихо и незаметно умирает и его верный друг Чжао, обремененный высокой моралью, вынужден тащить в буквальном смысле на собственных плечах тело приятеля через весь Китай с одной только целью — предать его земле в родной деревне, там, где живет его семья и где находятся его корни. Во время своего пути Чжао сталкивается со многими испытаниями, с разными людьми и ситуациями, решает проблемы, помогает незнакомым людям и даже впадает в отчаяние. Но то, что ждет его в самом конце пути, подвергает пересмотру все предшествующее…
Релиз от -
Сэмпл: http://multi-up.com/1037257
Качество видео: DVDRip
Формат видео: AVI
Видео: MPEG-4 Visual at 821 Кбит/сек; 688 x 384 (1.792) at 23.976 fps
Аудио: MPEG Audio at 128 Кбит/сек; 2 канала, 48,0 КГц
Автор -

MediaInfo

Общее
Полное имя : D:\Фильмы\Азиатские\Вернуться Домой\I'll Get Home When Sober.2010.DVDRip.XviD.745MB. rip by [Assassin's Creed].avi
Формат : AVI
Формат/Информация : Audio Video Interleave
Размер файла : 749 Мбайт
Продолжительность : 1 ч. 49 м.
Общий поток : 958 Кбит/сек
Программа кодирования : VirtualDubMod 1.5.10.3 | www.virtualdub-fr.org || (build 2550/release)
Библиотека кодирования : VirtualDubMod build 2550/release
Видео
Идентификатор : 0
Формат : MPEG-4 Visual
Профиль формата : Advanced Simple@L5
Параметр BVOP формата : 1
Параметр QPel формата : Нет
Параметр GMC формата : Без точки перехода
Параметр матрицы формата : Default (MPEG)
Идентификатор кодека : XVID
Идентификатор кодека/Подсказка : XviD
Продолжительность : 1 ч. 49 м.
Битрейт : 821 Кбит/сек
Ширина : 688 пикселей
Высота : 384 пикселя
Соотношение сторон : 16:9
Частота кадров : 23,976 кадра/сек
Цветовое пространство : YUV
Субдискретизация насыщенности : 4:2:0
Битовая глубина : 8 бит
Тип развёртки : Прогрессивная
Метод сжатия : С потерями
Бит/(Пиксели*Кадры) : 0.130
Размер потока : 641 Мбайт (86%)
Библиотека кодирования : XviD 1.2.1 (UTC 2008-12-04)
Аудио
Идентификатор : 1
Формат : MPEG Audio
Версия формата : Version 1
Профиль формата : Layer 3
Идентификатор кодека : 55
Идентификатор кодека/Подсказка : MP3
Продолжительность : 1 ч. 49 м.
Вид битрейта : Постоянный
Битрейт : 128 Кбит/сек
Каналы : 2 канала
Частота : 48,0 КГц
Метод сжатия : С потерями
Размер потока : 100 Мбайт (13%)
Выравнивание : Соединение по промежуткам
Продолжительность промежутка : 42 мс. (1,00 видеокадр)
Время предзагрузки промежутка : 504 мс.
Библиотека кодирования : LAME3.99r
Настройки программы : -m s -V 4 -q 2 -lowpass 17 -b 128

Скриншот c названием фильма

Скриншоты

[teatrix.ru].t5956.torrent 
Торрент: Зарегистрирован [ 2015-10-10 09:49 ] · C7EB68F75CE4912C910D69857D32313E52C0753F

Скачать .torrent

Скачать

15 KB

Статус: проверено
Скачан: 0 раз
Размер: 749 MB
terms.php



Быстрый ответ

Имя:

      
Для отправки сообщений необходимо включить JavaScript
Показать сообщения:    

Текущее время: 09-Дек 08:53

Часовой пояс: UTC + 3


Вы можете начинать темы
Вы можете отвечать на сообщения
Вы не можете редактировать свои сообщения
Вы не можете удалять свои сообщения
Вы не можете голосовать в опросах
Вы не можете прикреплять файлы к сообщениям
Вы можете скачивать файлы