Онирика. Собачье поле / Onirica. Field of dogs / Onirica. Psie pole (Лех Маевски / Lech Majewski) [2014, Польша, Драма, Фантасмагория, DVDRip-AVC] Original + Sub (Rus)


Статистика раздачи [Обновить пиров]
Размер:  2.04 GB   |    Зарегистрирован:  1 год 1 месяц   |    Скачан:  0 раз

Полного источника не было: Никогда

 
   
 
 
 

[Цитировать]

Онирика. Собачье поле / Onirica. Field of dogs / Onirica. Psie pole-- Страна: Польша
Жанр: Драма, Фантасмагория
Год выпуска: 2014
Продолжительность: 1:38:54
Перевод: Субтитры (Professor)
Cубтитры: русские
Оригинальная аудиодорожка: польский, итальянский-Режиссер: Лех Маевски / Lech Majewski
В ролях: Михал Татарек, Эльжбета Окупска, Анна Мелчарек, Яценты Ендрусик, Шимон Будзик
Описание: Отец вспахивает магазин на волах, плуг срезает черепицу. Лес полон мертвецов, Ниагара низвергается на церковный алтарь. Вот какие видения преследуют Адама, поэта, потерявшего свою возлюбленную в автокатастрофе. Национальная трагедия накладывается на личную. Год 2010, библейский год для Польши, с наводнениями, пожарами, оползнями, загадочной авиакатастрофой, в которой погибла вся элита страны. Адам увольняется с должности профессора литературы и идёт работать кассиром в супермаркет. Но он хочет только спать, спасаясь от болезненной действительности.--Доп. информация: Исходный DVD9 скачал с зарубежного трекера.-Сэмпл
Качество видео: DVDRip-AVC
Формат видео: MKV
Видео: x264, 720х544 => 1006х544 (1,85:1), 2500 Кбит/сек, 25,000 кадров/сек
Аудио: AC-3, 448 Кбит/сек, 6 каналов (Front: L C R, Side: L R, LFE), 48,0 КГц
Формат субтитров: softsub (SRT)

Фрагмент субтитров

246
00:36:49,414 --> 00:36:51,852
Скольких живущих я похоронила?
247
00:36:55,418 --> 00:36:57,195
А сколько похоронили меня?
248
00:36:57,861 --> 00:36:59,115
...хотя я жива, думаю...
249
00:37:00,513 --> 00:37:01,675
...и чувствую
250
00:37:04,652 --> 00:37:06,265
Нас связывали крепкие узы...
251
00:37:08,261 --> 00:37:09,389
...вместе жили...
252
00:37:10,698 --> 00:37:14,863
...одинаково чувствовали, а потом внезапно,
без предупреждения и объяснения...
253
00:37:16,640 --> 00:37:18,265
...перестать встречаться...
254
00:37:19,250 --> 00:37:20,955
...звонить, писать...
255
00:37:23,027 --> 00:37:25,637
...обычно, из-за ерунды:
256
00:37:27,242 --> 00:37:29,128
Кто-то уехал, сменил адрес...
257
00:37:30,833 --> 00:37:32,665
...сказал нелестные слова...
258
00:37:33,549 --> 00:37:35,389
...или зло посмотрел
259
00:37:36,437 --> 00:37:39,317
Или показалось, что посмотрел
260
00:37:42,046 --> 00:37:46,631
А еще чаще, кто-то сказал,
что кто-то сказал, не знаю о чем
261
00:37:49,077 --> 00:37:50,362
И готово
262
00:37:51,267 --> 00:37:52,370
Мосты...
263
00:37:52,783 --> 00:37:55,094
...строившиеся месяцами
и годами, ломаются...
264
00:37:55,840 --> 00:37:58,526
...и топятся в реке повседневности
265
00:38:00,400 --> 00:38:01,570
И ни одна из сторон...
266
00:38:02,960 --> 00:38:05,260
...не высказывает желания
их восстановить

MediaInfo

Общее
Уникальный идентификатор : 243166541707693442614573706232383322361 (0xB6F02C23603B36D1B609257C01BAB8F9)
Полное имя : Онирика. Собачье поле (Onirica. Field of dogs (Onirica. Psie pole)).mkv
Формат : Matroska
Версия формата : Version 4 / Version 2
Размер файла : 2,04 Гбайт
Продолжительность : 1 ч. 38 м.
Общий поток : 2949 Кбит/сек
Название фильма : Онирика. Собачье поле | Onirica. Field of dogs | Onirica. Psie pole
Дата кодирования : UTC 2015-03-08 12:28:12
Программа кодирования : mkvmerge v7.7.0 ('Six Voices') 64bit built on Feb 28 2015 23:39:33
Библиотека кодирования : libebml v1.3.1 + libmatroska v1.4.2
DURATION : 01:34:09.001000000
NUMBER_OF_FRAMES : 503
NUMBER_OF_BYTES : 33198
_STATISTICS_WRITING_APP : mkvmerge v7.7.0 ('Six Voices') 64bit built on Feb 28 2015 23:39:33
_STATISTICS_WRITING_DATE_UTC : 2015-03-08 12:28:12
_STATISTICS_TAGS : BPS DURATION NUMBER_OF_FRAMES NUMBER_OF_BYTES
Видео
Идентификатор : 1
Формат : AVC
Формат/Информация : Advanced Video Codec
Профиль формата : High@L4.1
Параметр CABAC формата : Да
Параметр ReFrames формата : 14 кадров
Идентификатор кодека : V_MPEG4/ISO/AVC
Продолжительность : 1 ч. 38 м.
Битрейт : 2500 Кбит/сек
Ширина : 720 пикселей
Высота : 544 пикселя
Соотношение сторон : 1,85:1
Соотношение сторон в оригинале : 1,85:1
Режим частоты кадров : Постоянный
Частота кадров : 25,000 кадров/сек
Цветовое пространство : YUV
Субдискретизация насыщенности : 4:2:0
Битовая глубина : 8 бит
Тип развёртки : Прогрессивная
Бит/(Пиксели*Кадры) : 0.255
Размер потока : 1,69 Гбайт (83%)
Заголовок : Onirica. Field of dogs / Onirica. Psie pole | DVDRip by Gersuzu
Библиотека кодирования : x264 core 130 r2273 b3065e6
Настройки программы : cabac=1 / ref=14 / deblock=1:-3:-3 / analyse=0x3:0x113 / me=umh / subme=9 / psy=1 / psy_rd=1.00:0.20 / mixed_ref=1 / me_range=32 / chroma_me=1 / trellis=2 / 8x8dct=1 / cqm=0 / deadzone=21,11 / fast_pskip=0 / chroma_qp_offset=-3 / threads=6 / lookahead_threads=1 / sliced_threads=0 / nr=0 / decimate=1 / interlaced=0 / bluray_compat=0 / constrained_intra=0 / bframes=12 / b_pyramid=2 / b_adapt=2 / b_bias=0 / direct=3 / weightb=1 / open_gop=0 / weightp=2 / keyint=250 / keyint_min=25 / scenecut=40 / intra_refresh=0 / rc_lookahead=50 / rc=2pass / mbtree=1 / bitrate=2500 / ratetol=1.0 / qcomp=0.60 / qpmin=0 / qpmax=69 / qpstep=4 / cplxblur=20.0 / qblur=0.5 / vbv_maxrate=50000 / vbv_bufsize=50000 / nal_hrd=none / ip_ratio=1.40 / aq=1:1.00
Default : Да
Forced : Нет
Аудио
Идентификатор : 2
Формат : AC-3
Формат/Информация : Audio Coding 3
Расширение режима : CM (complete main)
Параметр Endianness формата : Big
Идентификатор кодека : A_AC3
Продолжительность : 1 ч. 38 м.
Вид битрейта : Постоянный
Битрейт : 448 Кбит/сек
Каналы : 6 каналов
Расположение каналов : Front: L C R, Side: L R, LFE
Частота : 48,0 КГц
Битовая глубина : 16 бит
Метод сжатия : С потерями
Размер потока : 317 Мбайт (15%)
Заголовок : Original
Default : Да
Forced : Нет
Текст
Идентификатор : 3
Формат : UTF-8
Идентификатор кодека : S_TEXT/UTF8
Идентификатор кодека/Информация : UTF-8 Plain Text
Заголовок : Professor
Язык : Russian
Default : Да
Forced : Нет
Меню
00:00:00.000 : en:1. Un Gelido Inverno
00:04:09.480 : en:2. Supermarket Dante
00:08:55.920 : en:3. Inferno Canto I
00:15:08.480 : en:4. Vedere Cenzo'occhi
00:18:34.120 : en:5. Calamita
00:22:30.560 : en:6. L'impotenza E La Misericordia
00:29:51.480 : en:7. La Culla Della Luce
00:34:06.760 : en:8. Definizioni Di Morte
00:38:41.280 : en:9. Bikini Girl
00:46:45.560 : en:10. Inferno Canto III
00:54:34.520 : en:11. Una Tragedia Inimmaginabile
00:59:05.120 : en:12. Kamil
01:02:58.200 : en:13. Nube Di Cenere Sui Defunti
01:06:25.680 : en:14. Nella Radura Una Luce
01:17:59.280 : en:15. Visioni
01:21:23.120 : en:16. Paradiso Canto XI
01:24:11.520 : en:17. Ricongiungimento
01:29:15.640 : en:18. Catarsi
[teatrix.ru].t5957.torrent 
Торрент: Зарегистрирован [ 2015-10-10 09:49 ] · E4F089DD04DA0D433AB8F7819A4C4D33C5B032FC

Скачать .torrent

Скачать

11 KB

Статус: проверено
Скачан: 0 раз
Размер: 2.04 GB
terms.php



Быстрый ответ

Имя:

      
Для отправки сообщений необходимо включить JavaScript
Показать сообщения:    

Текущее время: 09-Дек 20:24

Часовой пояс: UTC + 3


Вы можете начинать темы
Вы можете отвечать на сообщения
Вы не можете редактировать свои сообщения
Вы не можете удалять свои сообщения
Вы не можете голосовать в опросах
Вы не можете прикреплять файлы к сообщениям
Вы можете скачивать файлы