Море внутри / The Sea Inside / Mar adentro (Алехандро Аменабар / Alejandro Amenábar) [2004, Франция, Италия, Испания, драма, биография, BDRip] MVO + Sub Rus, Eng + Original Spa


 

[Цитировать]

--Море внутри / The Sea Inside / Mar adentro- Страна: Франция, Италия, Испания
Жанр: драма, биография
Год выпуска: 2004
Продолжительность: 02:05:45-Перевод: Профессиональный (многоголосый закадровый)
Cубтитры: русские (отдельно), английские (отдельно)
Оригинальная аудиодорожка: испанский-Режиссер: Алехандро Аменабар / Alejandro Amenábar-В ролях: Хавьер Бардем, Белен Руэда, Лола Дуэньяс, Мабель Ривера, Челсо Бугалло, Клара Сегура, Джоан Далмау, Альберто Хименес, Тамар Новас, Франческ Гарридо, Хосе Мария Поу, Альберто Амарилья, Николас Фернандес Луна, Андреа Оккипинти, Федерико Перес Рей, Рауль Лавизье, Хосе Мануэль Ольвейра 'Пико', Сесар Камбейро, Хосе Мануэль Эсперанте, Иоланда Муиньос, Адольфо Обрегон, Хосе Луис Родригес, Хулио Хордан, Хуан Мануэль Видаль, Марта Ларральде, Джорди Баллестер
Описание: Реальная история испанца Рамона Сампедро, который, будучи полностью парализованным около тридцати лет, 2 года боролся за право на добровольный уход из жизни. Фильм рассказывает о его отношениях с двумя женщинами: Джулией, его адвокатом, и подругой Розой, которая пытается убедить Рамона, что жизнь стоит того, чтобы жить. Сила любви Рамона вдохновляет женщин на поступки, которые казались им невозможными. Рамон, несмотря на желание смерти, раскрывает своим друзьям и близким ценность и смысл жизни. Он не может двигаться сам, но может заставить любого изменить течение его жизни.-| Сэмпл | IMDB | КиноПоиск |

Автор рипа: yaroslaigor-Качество видео: BDRip (источник: irrlicht / Blu-Ray Remux / 1080р)
Формат видео: AVI
Видео: 720x304 (2.37:1), 23.976 fps, XviD build 65 ~1838 kbps avg, 0.35 bit/pixel
Аудио: 48 kHz, AC3 Dolby Digital, 2/0 (L,R) ch, ~192 kbps avg (RUS)
Аудио 2: 48 kHz, AC3 Dolby Digital, 3/2 (L,C,R,l,r) + LFE ch, ~448 kbps avg (SPA)
Формат субтитров: softsub (SRT)

MediaInfo

Общее
Полное имя : F:\BD torrent\mytorrentsup\More.vnutri.2004.DUAL.BDRip.XviD.AC3.-HQCLUB\More.vnutri.2004.DUAL.BDRip.XviD.AC3.-HQCLUB.avi
Формат : AVI
Формат/Информация : Audio Video Interleave
Профиль формата : OpenDML
Размер файла : 2,18 Гбайт
Продолжительность : 2 ч. 5 м.
Общий поток : 2485 Кбит/сек
Название фильма : Море внутри / The Sea Inside / Mar adentro (2004) BDRip
Режиссёр : yaroslaigor
Жанр : драма, мелодрама, биография
Программа кодирования : VirtualDubMod 1.5.10.2 (build 2542/release)
Примечание : 06.03.2015
Видео
Идентификатор : 0
Формат : MPEG-4 Visual
Профиль формата : Advanced Simple@L5
Параметр BVOP формата : 1
Параметр QPel формата : Нет
Параметр GMC формата : Без точки перехода
Параметр матрицы формата : Выборочная
Идентификатор кодека : XVID
Идентификатор кодека/Подсказка : XviD
Продолжительность : 2 ч. 5 м.
Битрейт : 1827 Кбит/сек
Ширина : 720 пикселей
Высота : 304 пикселя
Соотношение сторон : 2,35:1
Частота кадров : 23,976 кадра/сек
Цветовое пространство : YUV
Субдискретизация насыщенности : 4:2:0
Битовая глубина : 8 бит
Тип развёртки : Прогрессивная
Метод сжатия : С потерями
Бит/(Пиксели*Кадры) : 0.348
Размер потока : 1,61 Гбайт (74%)
Библиотека кодирования : XviD 65
Аудио #1
Идентификатор : 1
Формат : AC-3
Формат/Информация : Audio Coding 3
Расширение режима : CM (complete main)
Параметр Endianness формата : Big
Идентификатор кодека : 2000
Продолжительность : 2 ч. 5 м.
Вид битрейта : Постоянный
Битрейт : 192 Кбит/сек
Каналы : 2 канала
Расположение каналов : Front: L R
Частота : 48,0 КГц
Битовая глубина : 16 бит
Метод сжатия : С потерями
Размер потока : 173 Мбайт (8%)
Выравнивание : Разделение по промежуткам
Продолжительность промежутка : 42 мс. (1,00 видеокадр)
Время предзагрузки промежутка : 500 мс.
Аудио #2
Идентификатор : 2
Формат : AC-3
Формат/Информация : Audio Coding 3
Расширение режима : CM (complete main)
Параметр Endianness формата : Big
Идентификатор кодека : 2000
Продолжительность : 2 ч. 5 м.
Вид битрейта : Постоянный
Битрейт : 448 Кбит/сек
Каналы : 6 каналов
Расположение каналов : Front: L C R, Side: L R, LFE
Частота : 48,0 КГц
Битовая глубина : 16 бит
Метод сжатия : С потерями
Размер потока : 403 Мбайт (18%)
Выравнивание : Разделение по промежуткам
Продолжительность промежутка : 42 мс. (1,00 видеокадр)
Время предзагрузки промежутка : 500 мс.
Общее
Полное имя : F:\BD torrent\mytorrentsup\More.vnutri.2004.DUAL.BDRip.XviD.AC3.-HQCLUB\More.vnutri.2004.DUAL.BDRip.XviD.AC3.-HQCLUB.ENG.srt
Формат : SubRip
Размер файла : 94,2 Кбайт
Текст
Формат : SubRip
Метод сжатия : Без потерь
Общее
Полное имя : F:\BD torrent\mytorrentsup\More.vnutri.2004.DUAL.BDRip.XviD.AC3.-HQCLUB\More.vnutri.2004.DUAL.BDRip.XviD.AC3.-HQCLUB.RUS.srt
Размер файла : 95,3 Кбайт

Скриншот c названием фильма

Скриншоты

сравнение звук: BDRip c DVDRip



Показать сообщения:    

Текущее время: 10-Дек 17:39

Часовой пояс: UTC + 3


Вы не можете начинать темы
Вы не можете отвечать на сообщения
Вы не можете редактировать свои сообщения
Вы не можете удалять свои сообщения
Вы не можете голосовать в опросах
Вы не можете прикреплять файлы к сообщениям
Вы не можете скачивать файлы