Держите язык за зубами, мадемуазель / Tirez la langue, mademoiselle (Аксель Ропер / Axelle Ropert) [2013, Франция, драма, комедия, WEB-DLRip ] Sub Rus + Original Fre


Статистика раздачи [Обновить пиров]
Размер:  1.46 GB   |    Зарегистрирован:  1 год 1 месяц   |    Скачан:  1 раз

Полного источника не было: 15 дней

 
   
 
 
 

[Цитировать]

Держите язык за зубами, мадемуазель
/ Tirez la langue, mademoiselle
Год выпуска: 2013
Страна: Франция
Жанр: драма, комедия
Продолжительность: 01:35:38
Перевод: Субтитры
Cубтитры: русские (Myfrenchfilmfestival)
Оригинальная аудиодорожка: французский
Режиссер: Аксель Ропер / Axelle Ropert
Сценарий: Аксель Ропер / Axelle Ropert
Продюсер: Филипп Мартен / Philippe Martin, Давид Тион / David Thion, Эйдзи Ямадзаки / Eiji Yamazaki
Оператор: Селин Бозон / Céline Bozon
Композитор: Бенжамен Эсдраффо / Benjamin Esdraffo
В ролях: Cедрик Кан,Лоран Стокер, Луиз Бургуан, Серж Бозон, Жиль Гастон-Дрейфус, Жан-Пьерр Пети, Клоэ Эсдраффо-Описание: Братья Борис и Дмитрий Пизарник работают вместе врачами в Китайском квартале Парижа, посвящая все свое время своим пациентам. Однажды ночью им приходится оказать помощь маленькой девочке, больной диабетом, которую Жюдит, ее мама, воспитывает сама. Оба брата влюбляются в Жюдит. Мир полностью переворачивается для них…-Рейтинг
Кинопоиск
IMDB-Качество: WEB-DLRip
Формат: AVI
Видео: XviD; 720x432 (1.667); 1788 Kbps; 25 fps; 0,230 bpp
Аудио: AC3; 384 Kbps; CBR; 6 ch; 48.0 KHz-

MI

Format : AVI
Format/Info : Audio Video Interleave
File size : 1.46 GiB
Duration : 1h 35mn
Overall bit rate : 2 182 Kbps
Writing application : VirtualDubMod 1.5.10.3 | www.virtualdub-fr.org || (build 2550/release)
Writing library : VirtualDubMod build 2550/release
Video
ID : 0
Format : MPEG-4 Visual
Format profile : Advanced Simple@L5
Format settings, BVOP : 1
Format settings, QPel : No
Format settings, GMC : No warppoints
Format settings, Matrix : Default (MPEG)
Codec ID : XVID
Codec ID/Hint : XviD
Duration : 1h 35mn
Bit rate : 1 788 Kbps
Width : 720 pixels
Height : 432 pixels
Display aspect ratio : 1.667
Frame rate : 25.000 fps
Color space : YUV
Chroma subsampling : 4:2:0
Bit depth : 8 bits
Scan type : Progressive
Compression mode : Lossy
Bits/(Pixel*Frame) : 0.230
Stream size : 1.19 GiB (82%)
Writing library : XviD 1.2.1 (UTC 2008-12-04)
Audio
ID : 1
Format : AC-3
Format/Info : Audio Coding 3
Mode extension : CM (complete main)
Format settings, Endianness : Big
Codec ID : 2000
Duration : 1h 35mn
Bit rate mode : Constant
Bit rate : 384 Kbps
Channel(s) : 6 channels
Channel positions : Front: L C R, Side: L R, LFE
Sampling rate : 48.0 KHz
Bit depth : 16 bits
Compression mode : Lossy
Stream size : 263 MiB (18%)
Alignment : Split accross interleaves
Interleave, duration : 40 ms (1.00 video frame)
Interleave, preload duration : 500 ms

Пример субтитров

387
00:32:01,521 --> 00:32:02,600
Привет, Алиса.
388
00:32:03,241 --> 00:32:04,760
Мама сказал, ты плохо себя
чувствовала.
389
00:32:04,921 --> 00:32:06,840
Я в порядке, не стоило
приходить.
390
00:32:08,521 --> 00:32:10,760
Доктор-то я. Что ты ешь
391
00:32:10,921 --> 00:32:12,080
Шоколадное печенье.
392
00:32:12,241 --> 00:32:13,440
Плохая идея.
393
00:32:17,081 --> 00:32:19,080
Ты всегда записываешь, когда болит?
394
00:32:19,321 --> 00:32:21,280
Ты точно не обманываешь нас?
395
00:32:21,681 --> 00:32:23,080
На тебя можно положиться?
396
00:32:23,441 --> 00:32:26,200
Ты не делаешь вид, что все
хорошо, чтобы успокоить маму?
397
00:32:26,441 --> 00:32:27,520
Точно?
398
00:32:28,121 --> 00:32:29,000
Ну хорошо.
399
00:32:30,001 --> 00:32:32,520
Лежи, я напишу маме записку.
400
00:32:33,201 --> 00:32:34,400
Доктор, у вас есть жена?
401
00:32:34,601 --> 00:32:36,000
Нету.
402
00:32:36,161 --> 00:32:37,000
А у вашего брата?
403
00:32:37,201 --> 00:32:38,920
У моего брата тоже нет жены.
404
00:32:39,121 --> 00:32:41,000
Ложись спать, крошка.
405
00:33:29,361 --> 00:33:30,440
Жюдит,
406
00:33:30,921 --> 00:33:33,240
Мне кажется, ваша дочь врет
мне,
407
00:33:34,081 --> 00:33:35,760
У вас очень мило, но проверьте

Скриншоты



[teatrix.ru].t5961.torrent 
Торрент: Зарегистрирован [ 2015-10-10 09:49 ] · 9B59B77E497B14B4EB79D4FF5FB466415CBBF0D2

Скачать .torrent

Скачать

15 KB

Статус: проверено
Скачан: 1 раз
Размер: 1.46 GB
terms.php



Быстрый ответ

Имя:

      
Для отправки сообщений необходимо включить JavaScript
Показать сообщения:    

Текущее время: 09-Дек 03:05

Часовой пояс: UTC + 3


Вы можете начинать темы
Вы можете отвечать на сообщения
Вы не можете редактировать свои сообщения
Вы не можете удалять свои сообщения
Вы не можете голосовать в опросах
Вы не можете прикреплять файлы к сообщениям
Вы можете скачивать файлы