Жизнь Иисуса / La vie de Jésus (Брюно Дюмон / Bruno Dumont) [1997, Франция, драма, HDRip] MVO


 

[Цитировать]

Жизнь Иисуса / La vie de Jésus- Страна: Франция
Год выпуска: 1997
Жанр: драма
Продолжительность: 01:36:12
Перевод: Профессиональный (многоголосый закадровый)
Оригинальная аудиодорожка: нет
Cубтитры: нет
Режиссер: Брюно Дюмон / Bruno Dumont
В ролях: Давид Душ, Маржори Коттрель, Кадер Шаатуф, Себастьен Дельбаэр, Самюэль Буаден, Стив Смагг, Себастьен Бейёль, Женевьева Коттреэль, Сюзанн Бертелут, Джинн
Описание: Безработный по имени Фредди, живущий в маленьком городке и подверженный всевозможным психозам несамостоятельного, глубоко дремучего и безнадежно выродившегося «белого» пролетариата, убивает время в компании друзей, катаясь по окрестностям на мотоциклах и задирая прохожих, главным образом – арабских мигрантов. У Фредди есть девушка по имени Маория, с которой пытается заигрывать симпатичный араб по имени Кадер. Стоит ли сомневаться в том, что белые гегемоны захотят наказать «зарвавшегося» чужака? Распалившись, они пустятся во все тяжкие, что приведет к необратимым последствиям…
-Качество: HDRip [BDRip 1080p]
Формат: AVI
Видео кодек: XviD
Аудио кодек: AC3
Видео: 720x304 (2.37:1), 23.976 fps, XviD build 73 ~1968 kbps avg, 0.38 bit/pixel
Аудио: 48 kHz, AC3 Dolby Digital, 2/0 (L,R) ch, ~192 kbps-Раздача от: -

Скриншоты

MI

D:\Мои рипы\La.vie.de.Jesus.1997.hdrip.dexter_lex.avi
  General
    Complete name : D:\Мои рипы\La.vie.de.Jesus.1997.hdrip.dexter_lex.avi
    Format : AVI
    Format/Info : Audio Video Interleave
    File size : 1.46 GiB
    Duration : 1h 36mn
    Overall bit rate : 2 170 Kbps
    Writing application : VirtualDubMod 1.5.10.3 | www.virtualdub-fr.org || (build 2550/release)
    Writing library : VirtualDubMod build 2550/release
  Video #0
    ID : 0
    Format : MPEG-4 Visual
    Format profile : Advanced Simple@L5
    Format settings, BVOP : 1
    Format settings, QPel : No
    Format settings, GMC : No warppoints
    Format settings, Matrix : Custom
    Codec ID : XVID
    Codec ID/Hint : XviD
    Duration : 1h 36mn
    Bit rate : 1 968 Kbps
    Width : 720 pixels
    Height : 304 pixels
    Display aspect ratio : 2.35:1
    Frame rate : 23.976 fps
    Color space : YUV
    Chroma subsampling : 4:2:0
    Bit depth : 8 bits
    Scan type : Progressive
    Compression mode : Lossy
    Bits/(Pixel*Frame) : 0.375
    Stream size : 1.32 GiB (91%)
    Writing library : XviD 73
  Audio #1
    ID : 1
    Format : AC-3
    Format/Info : Audio Coding 3
    Mode extension : CM (complete main)
    Codec ID : 2000
    Duration : 1h 36mn
    Bit rate mode : Constant
    Bit rate : 192 Kbps
    Channel(s) : 2 channels
    Channel positions : Front: L R
    Sampling rate : 48.0 KHz
    Bit depth : 16 bits
    Compression mode : Lossy
    Stream size : 132 MiB (9%)
    Alignment : Split accross interleaves
    Interleave, duration : 42 ms (1.00 video frame)
    Interleave, preload duration : 500 ms



Показать сообщения:    

Текущее время: 11-Дек 03:22

Часовой пояс: UTC + 3


Вы не можете начинать темы
Вы не можете отвечать на сообщения
Вы не можете редактировать свои сообщения
Вы не можете удалять свои сообщения
Вы не можете голосовать в опросах
Вы не можете прикреплять файлы к сообщениям
Вы не можете скачивать файлы