За закрытыми дверями / Huis clos (Жаклин Одри / Jacqueline Audry) [1954, Франция, экранизация Сартра, драма, DVDRip] VO (innokent33) + Sub Rus + Original Fre


Статистика раздачи [Обновить пиров]
Размер:  1.46 GB   |    Зарегистрирован:  1 год 1 месяц   |    Скачан:  0 раз

Полного источника не было: Никогда

 
   
 
 
 

[Цитировать]

За закрытыми дверями / Huis clos- Страна: Франция
Жанр: экранизация Сартра, драма
Год выпуска: 1954
Продолжительность: 01:32:01-Перевод: Любительский (одноголосый закадровый) (innokent33 (StudiЯ))
Cубтитры: русские
Перевод субтитров: люди из СПбГУ & 08nikita
Оригинальная аудиодорожка: французский-Режиссер: Жаклин Одри / Jacqueline Audry
Адаптация и диалоги: Пьер Ларош / Pierre Laroche
Оператор: Робер Жюйяр / Robert Juillard
Художник: Морис Колассон / Maurice Colasson
Музыка: Жозеф Косма / Joseph Kosma-В ролях: Арлетти / Arletty (Инесс), Франк Виллар / Franck Villard (Гарсен), Габи Сильвия / Gaby Sylvia (Эстель), Ив Деньо / Yves Deniaud (коридорный)-Описание: В фильме "За закрытыми дверями" показан ад, как его понимал Сартр. В этом аду нет ни пламени, ни пыточных инструментов, ни физических мук, а палачи в нём - те, с кем заставляет нас сталкиваться сегодняшний день. "Ад - это другие!" (люди из СПбГУ & 08nikita)-Доп. информация: Фильм снят по одноимённой пьесе Жан-Поля Сартра.-DVD-Rip сделан из этой раздачи при помощи GordianKnot.- - -Качество видео: DVDRip
Формат видео: AVI
Видео: 720x512 (1.41:1), 25 fps, XviD build 46 ~1999 kbps avg, 0.22 bit/pixel
Аудио 1 (рус): 48 kHz, MPEG Layer 3, 2 ch, ~128.00 kbps avg
Аудио 2 (fr): 48 kHz, MPEG Layer 3, 2 ch, ~128.00 kbps avg
Формат субтитров: softsub (SRT)

MediaInfo

General
Complete name : ...:\...\...\Huis clos (1954)\Huis clos (1954).avi
Format : AVI
Format/Info : Audio Video Interleave
File size : 1.46 GiB
Duration : 1h 32mn
Overall bit rate : 2 271 Kbps
Writing application : VirtualDubMod 1.5.10.2 (build 2540/release)
Writing library : VirtualDubMod build 2540/release
Video
ID : 0
Format : MPEG-4 Visual
Format profile : Advanced Simple@L5
Format settings, BVOP : 2
Format settings, QPel : No
Format settings, GMC : No warppoints
Format settings, Matrix : Default (MPEG)
Codec ID : XVID
Codec ID/Hint : XviD
Duration : 1h 32mn
Bit rate : 2 001 Kbps
Width : 720 pixels
Height : 512 pixels
Display aspect ratio : 1.406
Frame rate : 25.000 fps
Color space : YUV
Chroma subsampling : 4:2:0
Bit depth : 8 bits
Scan type : Progressive
Compression mode : Lossy
Bits/(Pixel*Frame) : 0.217
Stream size : 1.29 GiB (88%)
Writing library : XviD 1.1.2 (UTC 2006-11-01)
Audio #1
ID : 1
Format : MPEG Audio
Format version : Version 1
Format profile : Layer 3
Codec ID : 55
Codec ID/Hint : MP3
Duration : 1h 32mn
Bit rate mode : Constant
Bit rate : 128 Kbps
Channel(s) : 2 channels
Sampling rate : 48.0 KHz
Compression mode : Lossy
Stream size : 84.2 MiB (6%)
Alignment : Aligned on interleaves
Interleave, duration : 40 ms (1.00 video frame)
Interleave, preload duration : 504 ms
Writing library : LAME3.98
Encoding settings : -m s -V 4 -q 5 -lowpass 17 -b 128
Audio #2
ID : 2
Format : MPEG Audio
Format version : Version 1
Format profile : Layer 3
Codec ID : 55
Codec ID/Hint : MP3
Duration : 1h 32mn
Bit rate mode : Constant
Bit rate : 128 Kbps
Channel(s) : 2 channels
Sampling rate : 48.0 KHz
Compression mode : Lossy
Stream size : 84.2 MiB (6%)
Alignment : Aligned on interleaves
Interleave, duration : 40 ms (1.00 video frame)
Interleave, preload duration : 504 ms
Writing library : LAME3.98
Encoding settings : -m s -V 4 -q 5 -lowpass 17 -b 128

Скриншот c названием фильма

Скриншоты

[teatrix.ru].t5964.torrent 
Торрент: Зарегистрирован [ 2015-10-10 09:49 ] · A410D5135CDEEC51AE3338D95304836C71021318

Скачать .torrent

Скачать

15 KB

Статус: проверено
Скачан: 0 раз
Размер: 1.46 GB
terms.php



Быстрый ответ

Имя:

      
Для отправки сообщений необходимо включить JavaScript
Показать сообщения:    

Текущее время: 03-Дек 01:14

Часовой пояс: UTC + 3


Вы можете начинать темы
Вы можете отвечать на сообщения
Вы не можете редактировать свои сообщения
Вы не можете удалять свои сообщения
Вы не можете голосовать в опросах
Вы не можете прикреплять файлы к сообщениям
Вы можете скачивать файлы