Дэйзи Бриллиант / Daisy Diamond (Симон Стахо / Simon Staho) [2007, Дания, драма, DVDRip] VO


Статистика раздачи [Обновить пиров]
Размер:  1.33 GB   |    Зарегистрирован:  1 год 1 месяц   |    Скачан:  0 раз

Полного источника не было: Никогда

 
   
 
 
 

[Цитировать]

Дэйзи Бриллиант / Daisy Diamond
Страна: Дания
Жанр: Арт-хаус / Авторское кино, драма, для взрослых
Год выпуска: 2007
Продолжительность: 01:35:07
Перевод: Одноголосый закадровый (Валерий Феодосов)
Cубтитры: нет
Режиссер: Симон Стахо / Simon Staho
В ролях: Нуми Рапас, Туре Линдхардт, Бенедикте Хансен, Мортен Кирксков, Амели Томесен, Софи Педерсен, Шаная Ингемансен, Хьяльмар Сигтрюггссон, Снефридур Йонсдоттир, Джонатан Вайс Брюэль
Описание: Анна мечтает стать актрисой, она уверена в своем таланте. Но незапланированный ребенок становится преградой на ее пути. Можно ли пожертвовать самым большим чудом в жизни ради сомнительного успеха на сцене? И останется ли такой обмен безнаказанным? Переплетая реальную жизнь с актерскими пробами героини, режиссер пытается ответить на эти вопросы.
Доп. информация: Русские субтитры - (sonnyb)
Сэмпл: https://www.sendspace.com/file/y5tl9k
Качество видео: DVDRip
Формат видео: AVI
Видео: XviD; 720x384 (1.875); 1740 Kbps; 25 fps; 0,252 bpp
Аудио: AC-3 at 256 Кбит/сек; 2 канала, 44,1 КГц

MediaInfo

General
Complete name : C:\Documents and Settings\Lerik\Рабочий стол\Daisy.Diamond.avi
Format : AVI
Format/Info : Audio Video Interleave
File size : 1.33 GiB
Duration : 1h 35mn
Overall bit rate : 2 005 Kbps
Writing application : VirtualDubMod 1.5.4.1 (build 2178/release)
Writing library : VirtualDub build 35390/release
Video #0
ID : 0
Format : MPEG-4 Visual
Format profile : Advanced Simple@L5
Format settings, BVOP : No
Format settings, QPel : No
Format settings, GMC : No warppoints
Format settings, Matrix : Custom
Codec ID : XVID
Codec ID/Hint : XviD
Duration : 1h 35mn
Bit rate : 1 740 Kbps
Width : 720 pixels
Height : 384 pixels
Display aspect ratio : 1.85:1
Frame rate : 25.000 fps
Color space : YUV
Chroma subsampling : 4:2:0
Bit depth : 8 bits
Scan type : Progressive
Compression mode : Lossy
Bits/(Pixel*Frame) : 0.252
Stream size : 1.16 GiB (87%)
Writing library : XviD 1.2.1 (UTC 2008-12-04)
Audio #1
ID : 1
Format : MPEG Audio
Format version : Version 1
Format profile : Layer 3
Codec ID : 55
Codec ID/Hint : MP3
Duration : 1h 35mn
Bit rate mode : Constant
Bit rate : 256 Kbps
Channel(s) : 2 channels
Sampling rate : 44.1 KHz
Compression mode : Lossy
Stream size : 174 MiB (13%)
Alignment : Split accross interleaves
Interleave, duration : 40 ms (1.00 video frame)
Interleave, preload duration : 500 ms

Скриншоты

[teatrix.ru].t5965.torrent 
Торрент: Зарегистрирован [ 2015-10-10 09:49 ] · 06EA4EEA306CAAA62E7ED6576A1B7A5A91230231

Скачать .torrent

Скачать

14 KB

Статус: проверено
Скачан: 0 раз
Размер: 1.33 GB
terms.php



Быстрый ответ

Имя:

      
Для отправки сообщений необходимо включить JavaScript
Показать сообщения:    

Текущее время: 10-Дек 08:04

Часовой пояс: UTC + 3


Вы можете начинать темы
Вы можете отвечать на сообщения
Вы не можете редактировать свои сообщения
Вы не можете удалять свои сообщения
Вы не можете голосовать в опросах
Вы не можете прикреплять файлы к сообщениям
Вы можете скачивать файлы