Дневная красавица / Belle de jour (Луис Бунюэль / Luis Buñuel) [1967, Франция, Италия, драма, BDRip] MVO (DVD Магия) + MVO (Ruscico) + AVO (Гаврилов) + Sub Rus, Eng + Original Fre


 

[Цитировать]

Дневная красавица / Belle de jour
Страна: Франция, Италия
Жанр: драма
Год выпуска: 1967
Продолжительность: 01:40:14
Перевод: Профессиональный (многоголосый закадровый) - DVD Магия
Перевод: Профессиональный (многоголосый закадровый) - Ruscico
Перевод: Авторский (одноголосый закадровый) - Андрей Гаврилов
Cубтитры: русские, английские
Оригинальная аудиодорожка: французский

Режиссер: Луис Бунюэль / Luis Buñuel
В ролях: Катрин Денёв, Жан Сорель, Мишель Пикколи, Женевьева Паж, Пьер Клементи, Франсуаза Фабиан, Мюни, Мария Латур, Клод Серваль, Мишель Шаррель, Иска Кхан, Бернар Мюссон, Марсель Шарве, Франсуа Мэстр, Франсиско Рабаль, Жорж Маршаль, Франсис Бланш
Описание: Главная героиня — буржуа-мазохистка Северина (Катрин Денев), которая холодна по отношению к мужу, так как он не удовлетворяет её мазохистские потребности. Она постоянно видит сны, в которых муж истязает её, но в реальности он очень внимательный и любящий мужчина. В конце концов оказавшись не в силах больше терпеть свою неудовлетворенность, Северина устраивается работать в бордель, где она наконец-то может воплотить свои сексуальные фантазии. Но работать она может только днем, пока мужа нет дома. За это и получает прозвище «дневная красавица», но, несмотря на ограничения во времени, завоевывает расположение множества клиентов. В результате ее сознание и реальная жизнь претерпевают необратимые изменения.
Качество видео: BDRip
Формат видео: AVI
Видео: 720x432 (1.67:1), 23.976 fps, XviD build 73 ~1872 kbps avg, 0.25 bit/pixel
Аудио: 48 kHz, AC3 Dolby Digital, 2/0 (L,R) ch, ~192 kbps - DVD Магия
отдельными файлами:
Аудио: 48 kHz, AC3 Dolby Digital, 2/0 (L,R) ch, ~192 kbps - Ruscico
Аудио: 48 kHz, AC3 Dolby Digital, 1 ch, ~192 kbps - Гаврилов
Аудио: 48 kHz, AC3 Dolby Digital, 1 ch, ~192 kbps - оригинал

MediaInfo

Общее
Полное имя : H:\Торрент отдачи 4\Belle.de.jour.1967.bdrip_[1.46]_[teko]\Belle.de.jour.1967.bdrip_[1.46].avi
Формат : AVI
Формат/Информация : Audio Video Interleave
Размер файла : 1,45 Гбайт
Продолжительность : 1 ч. 40 м.
Общий поток : 2074 Кбит/сек
Программа кодирования : VirtualDubMod 1.5.10.3 | www.virtualdub-fr.org || (build 2550/release)
Библиотека кодирования : VirtualDubMod build 2550/release
Видео
Идентификатор : 0
Формат : MPEG-4 Visual
Профиль формата : Advanced Simple@L5
Параметр BVOP формата : 1
Параметр QPel формата : Нет
Параметр GMC формата : Без точки перехода
Параметр матрицы формата : Выборочная
Идентификатор кодека : XVID
Идентификатор кодека/Подсказка : XviD
Продолжительность : 1 ч. 40 м.
Битрейт : 1872 Кбит/сек
Ширина : 720 пикселей
Высота : 432 пикселя
Соотношение сторон : 1,667
Частота кадров : 23,976 кадра/сек
Цветовое пространство : YUV
Субдискретизация насыщенности : 4:2:0
Битовая глубина : 8 бит
Тип развёртки : Прогрессивная
Метод сжатия : С потерями
Бит/(Пиксели*Кадры) : 0.251
Размер потока : 1,31 Гбайт (90%)
Библиотека кодирования : XviD 73
Аудио
Идентификатор : 1
Формат : AC-3
Формат/Информация : Audio Coding 3
Расширение режима : CM (complete main)
Параметр Endianness формата : Big
Идентификатор кодека : 2000
Продолжительность : 1 ч. 40 м.
Вид битрейта : Постоянный
Битрейт : 192 Кбит/сек
Каналы : 2 канала
Расположение каналов : Front: L R
Частота : 48,0 КГц
Битовая глубина : 16 бит
Метод сжатия : С потерями
Размер потока : 138 Мбайт (9%)
Выравнивание : Разделение по промежуткам
Продолжительность промежутка : 42 мс. (1,00 видеокадр)
Время предзагрузки промежутка : 500 мс.



Показать сообщения:    

Текущее время: 03-Дек 01:16

Часовой пояс: UTC + 3


Вы не можете начинать темы
Вы не можете отвечать на сообщения
Вы не можете редактировать свои сообщения
Вы не можете удалять свои сообщения
Вы не можете голосовать в опросах
Вы не можете прикреплять файлы к сообщениям
Вы не можете скачивать файлы