Вечное возвращение Антониса Параскеваса / I aionia epistrofi tou Antoni Paraskeva / The Eternal Return of Antonis Paraskevas (Элина Псику / Elina Psikou) [2013, Греция, Чехия, драма, DVDRip-AVC] Sub Rus + Original Gre


Статистика раздачи [Обновить пиров]
Размер:  1.28 GB   |    Зарегистрирован:  1 год 1 месяц   |    Скачан:  2 раза

Полного источника не было: 12 дней

 
   
 
 
 

[Цитировать]

Вечное возвращение Антониса Параскеваса / I aionia epistrofi tou Antoni Paraskeva / The Eternal Return of Antonis Paraskevas
Страна: Греция, Чехия
Жанр: Артхаус, драма
Год выпуска: 2013
Продолжительность: 01:28:54
Перевод: Субтитры: creo140
Дополнительно: Благодарю за помощь в работе
над переводом пользователя VK Trenton Morgan
Cубтитры: русские
Оригинальная аудиодорожка: греческий
Режиссер: Элина Псику / Elina Psikou
В ролях: Кристос Стергиоглоу, Мария Калльмани, Теодора Тциму, Силлас Цумеркас
Описание: Антонис Параскевас является национальной фигурой: 20 лет он находится у руля самого популярного в Греции утреннего телевизионного шоу. Однако никто не застрахован от падения рейтингов, долгов и личных проблем…
Доп. информация: http://www.kinopoisk.ru/film/735544/
http://www.imdb.com/title/tt2655938/
Сэмпл: http://multi-up.com/1035733
Качество видео: DVDRip-AVC
Формат видео: MKV
Видео: MPEG4 Video (H264) 720@1024x576 (16:9) 25fps
Аудио: Dolby AC3 48000Hz stereo 192kbps
Формат субтитров: softsub (SRT)

Фрагмент субтитров

14
00:10:49,887 --> 00:10:52,037
Это прекрасный отель.
15
00:10:52,447 --> 00:10:57,726
Здесь много номеров и номеров люкс.
16
00:11:11,327 --> 00:11:14,842
Здесь 320 комнат и номеров люкс.
17
00:11:15,647 --> 00:11:19,117
Все номера обеспечены
свежими фруктами и .
18
00:11:21,807 --> 00:11:24,526
Первосортная карта вин.
19
00:11:24,847 --> 00:11:29,363
Традиционный хьюмидор и
мировая классификация выбора сигар.
20
00:11:29,807 --> 00:11:32,799
Канапе и изысканные
шоколадные конфеты.
21
00:11:36,767 --> 00:11:42,205
Посетителям предлагается выбор
и услуги личного дворецкого.
22
00:11:43,087 --> 00:11:47,797
24-часовое обслуживание номера
и чистка .
23
00:11:49,407 --> 00:11:52,956
Восхитительная ванная
и различная продукция для тела.
24
00:11:53,487 --> 00:11:55,318
Махровые халаты.
25
00:11:55,367 --> 00:11:59,645
Мягкие тапочки
и обновление бутылок с водой.
26
00:11:59,687 --> 00:12:01,598
Ежедневные газеты.
27
00:12:01,847 --> 00:12:04,520
12 различных видов подушек.
28
00:12:04,767 --> 00:12:06,644
И личный сейф в номере.

MediaInfo

Format : Matroska
Format version : Version 4 / Version 2
File size : 1.28 GiB
Duration : 1h 28mn
Overall bit rate : 2 053 Kbps
Movie name : The Eternal Return of Antonis Paraskevas (Elina Psikou, 2013)
Encoded date : UTC 2014-07-22 01:50:32
Writing application : mkvmerge v6.9.1 ('Blue Panther') 32bit built on Apr 18 2014 18:15:44
Writing library : libebml v1.3.0 + libmatroska v1.4.1
Video
ID : 1
Format : AVC
Format/Info : Advanced Video Codec
Format profile : High@L3.1
Format settings, CABAC : Yes
Format settings, ReFrames : 9 frames
Codec ID : V_MPEG4/ISO/AVC
Duration : 1h 28mn
Bit rate : 1 863 Kbps
Width : 720 pixels
Height : 576 pixels
Display aspect ratio : 16:9
Frame rate mode : Constant
Frame rate : 25.000 fps
Standard : PAL
Color space : YUV
Chroma subsampling : 4:2:0
Bit depth : 8 bits
Scan type : Progressive
Bits/(Pixel*Frame) : 0.180
Stream size : 1.13 GiB (89%)
Writing library : x264 core 142 r2431 ac76440
Encoding settings : cabac=1 / ref=9 / deblock=1:-3:-3 / analyse=0x3:0x113 / me=umh / subme=9 / psy=1 / psy_rd=1.00:0.15 / mixed_ref=1 / me_range=24 / chroma_me=1 / trellis=1 / 8x8dct=1 / cqm=0 / deadzone=21,11 / fast_pskip=0 / chroma_qp_offset=-3 / threads=3 / lookahead_threads=1 / sliced_threads=0 / nr=0 / decimate=1 / interlaced=0 / bluray_compat=0 / constrained_intra=0 / bframes=5 / b_pyramid=2 / b_adapt=2 / b_bias=0 / direct=1 / weightb=1 / open_gop=0 / weightp=2 / keyint=250 / keyint_min=25 / scenecut=40 / intra_refresh=0 / rc_lookahead=50 / rc=2pass / mbtree=1 / bitrate=1863 / ratetol=1.0 / qcomp=0.60 / qpmin=0 / qpmax=69 / qpstep=4 / cplxblur=20.0 / qblur=0.5 / vbv_maxrate=17500 / vbv_bufsize=17500 / nal_hrd=none / filler=0 / ip_ratio=1.40 / aq=1:1.20
Default : Yes
Forced : No
Audio
ID : 2
Format : AC-3
Format/Info : Audio Coding 3
Mode extension : CM (complete main)
Format settings, Endianness : Big
Codec ID : A_AC3
Duration : 1h 28mn
Bit rate mode : Constant
Bit rate : 192 Kbps
Channel(s) : 2 channels
Channel positions : Front: L R
Sampling rate : 48.0 KHz
Bit depth : 16 bits
Compression mode : Lossy
Stream size : 122 MiB (9%)
Language : Greek
Default : Yes
Forced : No
Menu
00:00:00.000 : en:Chapter 1
00:03:26.880 : en:Chapter 2
00:11:20.640 : en:Chapter 3
00:19:11.520 : en:Chapter 4
00:26:06.720 : en:Chapter 5
00:28:46.560 : en:Chapter 6
00:42:34.560 : en:Chapter 7
00:50:27.360 : en:Chapter 8
00:57:32.160 : en:Chapter 9
01:06:43.200 : en:Chapter 10
01:14:28.320 : en:Chapter 11
01:25:33.600 : en:Chapter 12

Скриншот c названием фильма

[teatrix.ru].t5967.torrent 
Торрент: Зарегистрирован [ 2015-10-10 09:49 ] · D7D89FEE54C8AC3BC8A01694802A1A474E56D8FC

Скачать .torrent

Скачать

14 KB

Статус: проверено
Скачан: 2 раз
Размер: 1.28 GB
terms.php



Быстрый ответ

Имя:

      
Для отправки сообщений необходимо включить JavaScript
Показать сообщения:    

Текущее время: 04-Дек 00:53

Часовой пояс: UTC + 3


Вы можете начинать темы
Вы можете отвечать на сообщения
Вы не можете редактировать свои сообщения
Вы не можете удалять свои сообщения
Вы не можете голосовать в опросах
Вы не можете прикреплять файлы к сообщениям
Вы можете скачивать файлы