Другая Земля / Another Earth (Майк Кехилл / Mike Cahill) [2011, США, фантастика, драма, BDRip-AVC] MVO (R5) + Original (Eng) + Sub (Rus, Eng)


 

[Цитировать]

Другая Земля / Another Earth-
Год выпуска: 2011
Страна: США
Жанр: фантастика, драма
Продолжительность: 1:32:25
Перевод: Профессиональный (многоголосый закадровый) R5
Оригинальная аудиодорожка: английский
Cубтитры: русские (форсированные, полные), английские
Навигация по главам: есть-Режиссер: Майк Кехилл / Mike Cahill
В ролях: Брит Марлинг, Уильям Мапотер, Робин Лорд Тейлор, Джордан Бэйкер, Флинт Биверэйг, Кумар Паллана, Мегган Леннон, Ай Диана, Дайан Цисла, Луис Вега
Описание: Научно-фантастическая драма о трагическом пересечении жизней студентки и композитора в ночь открытия учёными идентичной Земле планеты в Солнечной системе.-IMDb: 7.0/10
КиноПоиск : 7.25/10-Сэмпл-Качество видео: BDRip-AVC
Формат: MKV
Видео кодек: AVC
Аудио кодек: AC3
Видео: x264, 1080x594 (16:9), 23.976, 4444kbps, 0.282 bit/pixel
Аудио 1: Russian AC3, 48kHz, 6ch, 448 kbps MVO R5
Аудио 2: English AC3, 48kHz, 6ch, 448 kbps Original
Формат субтитров: softsub (SRT)-

MediaInfo

Complete name : C:\...\Another.Earth.2011.x264.BDRip.ac3.Rus.Eng.subs.mkv
Format : Matroska
Format version : Version 4 / Version 2
File size : 3.45 GiB
Duration : 1h 32mn
Overall bit rate : 5 344 Kbps
Encoded date : UTC 2015-02-20 10:46:29
Writing application : mkvmerge v7.2.0 ('On Every Street') 32bit built on Sep 13 2014 15:42:11
Writing library : libebml v1.3.0 + libmatroska v1.4.1
Attachements : Cover.png
_STATISTICS_WRITING_APP : mkvmerge v7.2.0 ('On Every Street') 32bit built on Sep 13 2014 15:42:11
_STATISTICS_WRITING_DATE_UTC : 2015-02-20 10:46:29
_STATISTICS_TAGS : BPS DURATION NUMBER_OF_FRAMES NUMBER_OF_BYTES
DURATION : 01:25:30.210000000
NUMBER_OF_FRAMES : 798
NUMBER_OF_BYTES : 44621
Video
ID : 1
Format : AVC
Format/Info : Advanced Video Codec
Format profile : High@L4.0
Format settings, CABAC : Yes
Format settings, ReFrames : 10 frames
Codec ID : V_MPEG4/ISO/AVC
Duration : 1h 32mn
Bit rate : 4 341 Kbps
Width : 1 080 pixels
Height : 594 pixels
Display aspect ratio : 16:9
Frame rate mode : Constant
Frame rate : 23.976 fps
Color space : YUV
Chroma subsampling : 4:2:0
Bit depth : 8 bits
Scan type : Progressive
Bits/(Pixel*Frame) : 0.282
Stream size : 2.80 GiB (81%)
Writing library : x264 core 144 r2525kMod 40bb568
Encoding settings : cabac=1 / ref=10 / deblock=1:-2:-2 / analyse=0x3:0x113 / me=umh / subme=11 / psy=1 / fade_compensate=0.00 / psy_rd=1.05:0.05 / mixed_ref=1 / me_range=32 / chroma_me=1 / trellis=2 / 8x8dct=1 / cqm=0 / deadzone=21,11 / fast_pskip=1 / chroma_qp_offset=-3 / threads=3 / lookahead_threads=1 / sliced_threads=0 / nr=0 / decimate=1 / interlaced=0 / bluray_compat=0 / constrained_intra=0 / fgo=0 / bframes=14 / b_pyramid=2 / b_adapt=2 / b_bias=0 / direct=1 / weightb=1 / open_gop=0 / weightp=2 / keyint=250 / keyint_min=23 / scenecut=40 / intra_refresh=0 / rc=crf / mbtree=0 / crf=18.5000 / qcomp=0.60 / qpmin=0 / qpmax=69 / qpstep=4 / ip_ratio=1.40 / pb_ratio=1.20 / aq=3:0.90 / zones=126600,132960,q=35
Language : English
Default : Yes
Forced : No
Matrix coefficients : BT.709
_STATISTICS_WRITING_APP : mkvmerge v7.2.0 ('On Every Street') 32bit built on Sep 13 2014 15:42:11
_STATISTICS_WRITING_DATE_UTC : 2015-02-20 10:46:29
_STATISTICS_TAGS : BPS DURATION NUMBER_OF_FRAMES NUMBER_OF_BYTES
DURATION : 01:32:25.540000000
NUMBER_OF_FRAMES : 132960
NUMBER_OF_BYTES : 3081077719
Audio #1
ID : 2
Format : AC-3
Format/Info : Audio Coding 3
Mode extension : CM (complete main)
Format settings, Endianness : Big
Codec ID : A_AC3
Duration : 1h 32mn
Bit rate mode : Constant
Bit rate : 448 Kbps
Channel(s) : 6 channels
Channel positions : Front: L C R, Side: L R, LFE
Sampling rate : 48.0 KHz
Bit depth : 16 bits
Compression mode : Lossy
Stream size : 296 MiB (8%)
Title : MVO R5
Language : Russian
Default : Yes
Forced : No
Audio #2
ID : 3
Format : AC-3
Format/Info : Audio Coding 3
Mode extension : CM (complete main)
Format settings, Endianness : Big
Codec ID : A_AC3
Duration : 1h 32mn
Bit rate mode : Constant
Bit rate : 448 Kbps
Channel(s) : 6 channels
Channel positions : Front: L C R, Side: L R, LFE
Sampling rate : 48.0 KHz
Bit depth : 16 bits
Compression mode : Lossy
Stream size : 296 MiB (8%)
Title : Original
Language : English
Default : No
Forced : No
Text #1
ID : 4
Format : UTF-8
Codec ID : S_TEXT/UTF8
Codec ID/Info : UTF-8 Plain Text
Title : Forced
Language : Russian
Default : Yes
Forced : No
Text #2
ID : 5
Format : UTF-8
Codec ID : S_TEXT/UTF8
Codec ID/Info : UTF-8 Plain Text
Language : Russian
Default : No
Forced : No
Text #3
ID : 6
Format : UTF-8
Codec ID : S_TEXT/UTF8
Codec ID/Info : UTF-8 Plain Text
Language : English
Default : No
Forced : No
Menu
00:00:00.000 : en:Chapter 1
00:05:58.316 : en:Chapter 2
00:10:23.998 : en:Chapter 3
00:13:57.294 : en:Chapter 4
00:17:05.816 : en:Chapter 5
00:20:18.258 : en:Chapter 6
00:26:39.681 : en:Chapter 7
00:32:01.002 : en:Chapter 8
00:36:29.312 : en:Chapter 9
00:43:56.050 : en:Chapter 10
00:48:39.958 : en:Chapter 11
00:51:41.348 : en:Chapter 12
00:55:06.386 : en:Chapter 13
01:02:32.331 : en:Chapter 14
01:04:56.183 : en:Chapter 15
01:09:24.952 : en:Chapter 16
01:17:52.334 : en:Chapter 17
01:20:50.345 : en:Chapter 18
01:25:20.406 : en:Chapter 19
01:28:04.570 : en:Chapter 20

Log x264

x264 [info]: 1080x594p 1:1 @ 24000/1001 fps (cfr)
x264 [info]: profile High, level 4.0
x264 [info]: cabac=1 ref=10 deblock=1:-2:-2 analyse=0x3:0x113 me=umh subme=11 psy=1 fade_compensate=0.00 psy_rd=1.05:0.05 mixed_ref=1 me_range=32 chroma_me=1 trellis=2 8x8dct=1 cqm=0 deadzone=21,11 fast_pskip=1 chroma_qp_offset=-3 threads=3 lookahead_threads=1 sliced_threads=0 nr=0 decimate=1 interlaced=0 bluray_compat=0 constrained_intra=0 fgo=0 bframes=14 b_pyramid=2 b_adapt=2 b_bias=0 direct=1 weightb=1 open_gop=0 weightp=2 keyint=250 keyint_min=23 scenecut=40 intra_refresh=0 rc=crf mbtree=0 crf=18.5000 qcomp=0.60 qpmin=0 qpmax=69 qpstep=4 ip_ratio=1.40 pb_ratio=1.20 aq=3:0.90 zones=126600,132960,q=35
x264 [info]: frame I:875 Avg QP:16.03 size: 87551
x264 [info]: frame P:23155 Avg QP:17.74 size: 37557
x264 [info]: frame B:108930 Avg QP:19.03 size: 19598
x264 [info]: consecutive B-frames: 1.4% 1.3% 4.0% 8.7% 8.8% 49.0% 4.2% 1.2% 2.6% 1.6% 3.7% 10.6% 0.4% 0.5% 1.9%
x264 [info]: mb I I16..4: 6.4% 78.0% 15.6%
x264 [info]: mb P I16..4: 0.8% 16.8% 1.8% P16..4: 27.9% 34.0% 12.2% 0.0% 0.0% skip: 6.5%
x264 [info]: mb B I16..4: 0.1% 3.2% 0.3% B16..8: 35.4% 22.6% 4.4% direct: 9.0% skip:25.0% L0:45.3% L1:43.5% BI:11.1%
x264 [info]: 8x8 transform intra:86.9% inter:62.1%
x264 [info]: coded y,uvDC,uvAC intra: 89.4% 91.0% 79.1% inter: 40.4% 31.8% 9.3%
x264 [info]: i16 v,h,dc,p: 55% 14% 8% 24%
x264 [info]: i8 v,h,dc,ddl,ddr,vr,hd,vl,hu: 12% 9% 12% 10% 12% 12% 11% 11% 12%
x264 [info]: i4 v,h,dc,ddl,ddr,vr,hd,vl,hu: 36% 9% 9% 6% 9% 9% 7% 8% 7%
x264 [info]: i8c dc,h,v,p: 48% 22% 17% 14%
x264 [info]: Weighted P-Frames: Y:12.1% UV:8.7%
x264 [info]: ref P L0: 41.2% 8.6% 17.9% 9.6% 6.1% 5.0% 3.9% 3.0% 2.1% 2.2% 0.3% 0.0%
x264 [info]: ref B L0: 68.3% 12.8% 6.9% 3.8% 2.8% 2.2% 1.9% 0.9% 0.3%
x264 [info]: ref B L1: 90.4% 9.6%
x264 [info]: kb/s:4444.76

Скриншоты

Сравнение

Source Encode



Показать сообщения:    

Текущее время: 11-Дек 05:19

Часовой пояс: UTC + 3


Вы не можете начинать темы
Вы не можете отвечать на сообщения
Вы не можете редактировать свои сообщения
Вы не можете удалять свои сообщения
Вы не можете голосовать в опросах
Вы не можете прикреплять файлы к сообщениям
Вы не можете скачивать файлы