Видео Бенни / Benny's Video (Михаэль Ханеке / Michael Haneke) [1992, Швейцария, Австрия, триллер, драма, криминал, BDRip] MVO + Sub Rus, Eng + Original Ger


 

[Цитировать]

Видео Бенни / Benny's Video
Страна: Швейцария, Австрия
Жанр: триллер, драма, криминал
Год выпуска: 1992
Продолжительность: 01:49:42
Перевод: Профессиональный (многоголосый закадровый)
Cубтитры: русские (dvd), русские (Маргарита Кривченко), английские
Оригинальная аудиодорожка: немецкий

Режиссер: Михаэль Ханеке / Michael Haneke
В ролях: Арно Фриш , Ангела Винклер, Ульрих Мюэ, Ингрид Штасснер, Стефани Бреме, Штефан Ролясек, Кристиан Пунди, Вольфганг Бек, Паулюс Манкер
Описание: Бенни — подросток из благополучной семьи. Его родители не особенно заняты его воспитанием, и поэтому Бенни по большей части предоставлен самому себе. Лишенный живого общения, Бенни постепенно все больше погружается в свой собственный внутренний мир, сформированный его любимыми фильмами, видеокассетами, которые он смотрит целыми днями напролет. Однажды он встречает девушку и приводит ее к себе домой, пока родители в отъезде. Но то, что начинается как обычная история любви между двумя подростками, неожиданно оборачивается трагедией.
Качество видео: BDRip
Формат видео: AVI
Видео: 672x400 (1.68:1), 23.976 fps, XviD build 73 ~1698 kbps avg, 0.26 bit/pixel
Аудио: 48 kHz, AC3 Dolby Digital, 2/0 (L,R) ch, ~192 kbps

MediaInfo

Общее
Полное имя : H:\Benny's.Video.1992.bdrip_[1.46]_[teko]\Benny's.Video.1992.bdrip_[1.46].avi
Формат : AVI
Формат/Информация : Audio Video Interleave
Размер файла : 1,46 Гбайт
Продолжительность : 1 ч. 49 м.
Общий поток : 1900 Кбит/сек
Программа кодирования : VirtualDubMod 1.5.10.3 | www.virtualdub-fr.org || (build 2550/release)
Библиотека кодирования : VirtualDubMod build 2550/release
Видео
Идентификатор : 0
Формат : MPEG-4 Visual
Профиль формата : Advanced Simple@L5
Параметр BVOP формата : 1
Параметр QPel формата : Нет
Параметр GMC формата : Без точки перехода
Параметр матрицы формата : Выборочная
Идентификатор кодека : XVID
Идентификатор кодека/Подсказка : XviD
Продолжительность : 1 ч. 49 м.
Битрейт : 1699 Кбит/сек
Ширина : 672 пикселя
Высота : 400 пикселей
Соотношение сторон : 1,680
Частота кадров : 23,976 кадра/сек
Цветовое пространство : YUV
Субдискретизация насыщенности : 4:2:0
Битовая глубина : 8 бит
Тип развёртки : Прогрессивная
Метод сжатия : С потерями
Бит/(Пиксели*Кадры) : 0.264
Размер потока : 1,30 Гбайт (89%)
Библиотека кодирования : XviD 73
Аудио
Идентификатор : 1
Формат : AC-3
Формат/Информация : Audio Coding 3
Расширение режима : CM (complete main)
Параметр Endianness формата : Big
Идентификатор кодека : 2000
Продолжительность : 1 ч. 49 м.
Вид битрейта : Постоянный
Битрейт : 192 Кбит/сек
Каналы : 2 канала
Расположение каналов : Front: L R
Частота : 48,0 КГц
Битовая глубина : 16 бит
Метод сжатия : С потерями
Размер потока : 151 Мбайт (10%)
Выравнивание : Разделение по промежуткам
Продолжительность промежутка : 42 мс. (1,00 видеокадр)
Время предзагрузки промежутка : 500 мс.



Показать сообщения:    

Текущее время: 22-Янв 04:42

Часовой пояс: UTC + 3


Вы не можете начинать темы
Вы не можете отвечать на сообщения
Вы не можете редактировать свои сообщения
Вы не можете удалять свои сообщения
Вы не можете голосовать в опросах
Вы не можете прикреплять файлы к сообщениям
Вы не можете скачивать файлы