Видео Бенни / Benny's Video (Михаэль Ханеке / Michael Haneke) [1992, Швейцария, Австрия, драма, BDRip] MVO


 

[Цитировать]

Видео Бенни / Benny's Video
Страна: Швейцария, Австрия
Жанр: драма
Год выпуска: 1992
Продолжительность: 01:49:42
Перевод: Профессиональный (многоголосый закадровый)
Cубтитры: нет

Режиссер: Михаэль Ханеке / Michael Haneke
В ролях: Арно Фриш, Ангела Винклер, Ульрих Мюэ, Ингрид Штасснер, Штефани Бреме, Штефан Полаcек, Кристиан Пунди, Макс Бернер, Ганспетер Мюллер, Шелли Кэстнер
Описание: Бенни — подросток из благополучной семьи. Его родители не особенно заняты его воспитанием, и поэтому Бенни по большей части предоставлен самому себе. Лишенный живого общения, Бенни постепенно все больше погружается в свой собственный внутренний мир, сформированный его любимыми фильмами, видеокассетами, которые он смотрит целыми днями напролет. Однажды он встречает девушку и приводит ее к себе домой, пока родители в отъезде. Но то, что начинается как обычная история любви между двумя подростками, неожиданно оборачивается трагедией.
Качество видео: BDRip
Формат видео: AVI
Видео: 640x384 (1.67:1), 23.976 fps, XviD build 73 ~809 kbps avg, 0.14 bit/pixel
Аудио: 48 kHz, MPEG Layer 3, 2 ch, ~128.00 kbps avg

MediaInfo

Общее
Полное имя : H:\Benny's.Video.1992.bdrip_[745]_[teko].avi
Формат : AVI
Формат/Информация : Audio Video Interleave
Размер файла : 743 Мбайт
Продолжительность : 1 ч. 49 м.
Общий поток : 947 Кбит/сек
Программа кодирования : VirtualDubMod 1.5.10.3 | www.virtualdub-fr.org || (build 2550/release)
Библиотека кодирования : VirtualDubMod build 2550/release
Видео
Идентификатор : 0
Формат : MPEG-4 Visual
Профиль формата : Advanced Simple@L5
Параметр BVOP формата : 2
Параметр QPel формата : Нет
Параметр GMC формата : Без точки перехода
Параметр матрицы формата : Выборочная
Идентификатор кодека : XVID
Идентификатор кодека/Подсказка : XviD
Продолжительность : 1 ч. 49 м.
Битрейт : 810 Кбит/сек
Ширина : 640 пикселей
Высота : 384 пикселя
Соотношение сторон : 1,667
Частота кадров : 23,976 кадра/сек
Цветовое пространство : YUV
Субдискретизация насыщенности : 4:2:0
Битовая глубина : 8 бит
Тип развёртки : Прогрессивная
Метод сжатия : С потерями
Бит/(Пиксели*Кадры) : 0.137
Размер потока : 636 Мбайт (86%)
Библиотека кодирования : XviD 73
Аудио
Идентификатор : 1
Формат : MPEG Audio
Версия формата : Version 1
Профиль формата : Layer 3
Идентификатор кодека : 55
Идентификатор кодека/Подсказка : MP3
Продолжительность : 1 ч. 49 м.
Вид битрейта : Постоянный
Битрейт : 128 Кбит/сек
Каналы : 2 канала
Частота : 48,0 КГц
Метод сжатия : С потерями
Размер потока : 100 Мбайт (14%)
Выравнивание : Соединение по промежуткам
Продолжительность промежутка : 42 мс. (1,00 видеокадр)
Время предзагрузки промежутка : 504 мс.
Библиотека кодирования : LAME3.98r
Настройки программы : -m s -V 4 -q 2 -lowpass 17 -b 128



Показать сообщения:    

Текущее время: 10-Дек 19:37

Часовой пояс: UTC + 3


Вы не можете начинать темы
Вы не можете отвечать на сообщения
Вы не можете редактировать свои сообщения
Вы не можете удалять свои сообщения
Вы не можете голосовать в опросах
Вы не можете прикреплять файлы к сообщениям
Вы не можете скачивать файлы