Премьера / Opening Night (Джон Кассаветис / John Cassavetes) [1977, США, драма, BDRip-AVC] [BFI] DVO + AVO (Кузнецов) + Sub Eng + Original Eng


 

[Цитировать]

-Премьера / Opening Night Страна: США
Жанр: драма
Год выпуска: 1977
Продолжительность: 02:24:04-Перевод: Профессиональный (двухголосый закадровый) т/к "Культура"
Перевод: Авторский (одноголосый закадровый) |Сергей Кузнецов|
Cубтитры: английские
Оригинальная аудиодорожка: английский-Режиссер: Джон Кассаветис / John Cassavetes-В ролях-Джина Роулендс, Джон Кассаветис, Бен Газзара, Джоэн Блонделл, Пол Стюарт, Зора Ламперт, Лаура Джонсон, Джон Тьюэлл, Кэтрин Кассаветес, Леди Роуландс, Миде Робертс, Джон Финнегэн-Описание-Драма стареющей бродвейской звезды, сильно пьющей и впадающей в депрессию после гибели одной из ее поклонниц. Происшествие потрясает её до самых глубин, она переживает сильнейший эмоциональный кризис. Её психологическое состояние мешает планомерным репетициям, что ставит под угрозу премьеру новой пьесы...-Качество видео: BDRip
Исходное видео: Blu-ray Remux-Контейнер: MKV-Видео: AVC, 1132х612 (1,85:1), ~4300 kbps, 23.976 fps,
Аудио: AC-3, 192 kbps, Dolby Digital, 2 (L,R) ch, 48 KHz |DVO|
Аудио: AC-3, 192 kbps, Dolby Digital, 2 (L,R) ch, 48 KHz |AVO|
Аудио: AC-3, 224 kbps, Dolby Digital, 2 (L,R) ch, 48 KHz |оригинал|
Формат субтитров: softsub (SRT)--

MediaInfox264

Spline64Resize(1132, 612, 0, 20, -0, -22)
FillMargins(1, 0, 1, 0)
VIDEO ENCODING
------------------------------
Encoding video to: F:\Temp\0014.264
x264 Q18.9 1132x612 23.976fps (207239 frames)
avs4x26x.exe: -L x264_64.exe --crf 18.9 --profile high --level 4.1 --ref 10 --aq-mode 3 --aq-strength 0.7 --deblock -3:-3 --merange 48 --bframes 16 --b-adapt 2 --trellis 2 --no-fast-pskip --subme 11 --me umh --no-mbtree --keyint 240 --colorprim bt709 --transfer bt709 --colormatrix bt709 --vbv-bufsize 50000 --vbv-maxrate 62500 --partitions p8x8,b8x8,i4x4,i8x8 --zones 204700,207241,q=30 --sar 1:1 --output "F:\Temp\0014.264" "F:\Temp\0014.avs"
raw [info]: 1132x612p 1:1 @ 24000/1001 fps (cfr)
x264 [info]: using SAR=1/1
x264 [info]: using cpu capabilities: MMX2 SSE2Fast LZCNT
x264 [info]: profile High, level 4.1
x264 [info]: frame I:1073 Avg QP:18.04 size: 80137
x264 [info]: frame P:34207 Avg QP:19.13 size: 39908
x264 [info]: frame B:171959 Avg QP:21.37 size: 19098
x264 [info]: consecutive B-frames: 0.7% 0.7% 2.5% 8.9% 10.1% 46.5% 6.5% 1.5% 5.7% 1.2% 3.4% 5.6% 2.8% 0.6% 2.1% 0.3% 0.8%
x264 [info]: mb I I16..4: 1.8% 90.9% 7.2%
x264 [info]: mb P I16..4: 0.4% 14.7% 0.9% P16..4: 31.0% 39.7% 12.7% 0.0% 0.0% skip: 0.7%
x264 [info]: mb B I16..4: 0.0% 1.4% 0.1% B16..8: 44.0% 24.3% 4.3% direct: 8.2% skip:17.8% L0:48.5% L1:44.0% BI: 7.5%
x264 [info]: 8x8 transform intra:92.1% inter:64.9%
x264 [info]: coded y,uvDC,uvAC intra: 95.4% 84.0% 42.1% inter: 46.6% 41.0% 1.2%
x264 [info]: i16 v,h,dc,p: 14% 14% 3% 70%
x264 [info]: i8 v,h,dc,ddl,ddr,vr,hd,vl,hu: 9% 5% 6% 11% 16% 15% 14% 13% 12%
x264 [info]: i4 v,h,dc,ddl,ddr,vr,hd,vl,hu: 27% 6% 3% 7% 13% 14% 11% 10% 9%
x264 [info]: i8c dc,h,v,p: 35% 25% 22% 18%
x264 [info]: Weighted P-Frames: Y:4.6% UV:2.5%
x264 [info]: ref P L0: 36.9% 10.1% 18.3% 8.6% 6.9% 5.6% 4.8% 3.1% 2.7% 2.7% 0.2% 0.0%
x264 [info]: ref B L0: 56.5% 15.4% 9.9% 5.5% 4.4% 3.6% 3.1% 1.2% 0.4%
x264 [info]: ref B L1: 86.8% 13.2%
x264 [info]: kb/s:4382.57
Формат : Matroska
Версия формата : Version 2
Размер файла : 5,02 Гбайт
Продолжительность : 2 ч. 24 м.
Общий поток : 4993 Кбит/сек
Название фильма : Премьера / Opening Night (1977)
Дата кодирования : UTC 2015-02-27 08:57:56
Программа кодирования : mkvmerge v7.6.0 ('Garden of Dreams') 32bit built on Feb 11 2015 00:18:47
Библиотека кодирования : libebml v1.3.1 + libmatroska v1.4.2
Видео
Идентификатор : 1
Формат : AVC
Формат/Информация : Advanced Video Codec
Профиль формата : High@L4.1
Параметр CABAC формата : Да
Параметр ReFrames формата : 10 кадров
Идентификатор кодека : V_MPEG4/ISO/AVC
Продолжительность : 2 ч. 24 м.
Битрейт : 4286 Кбит/сек
Ширина : 1132 пикселя
Высота : 612 пикселей
Соотношение сторон : 1,85:1
Частота кадров : 23,976 кадра/сек
Цветовое пространство : YUV
Субдискретизация насыщенности : 4:2:0
Битовая глубина : 8 бит
Тип развёртки : Прогрессивная
Бит/(Пиксели*Кадры) : 0.258
Размер потока : 4,31 Гбайт (86%)
Заголовок : Opening.Night_1977.BFI_BDRip_cw_RGTru
Библиотека кодирования : x264 core 144 r2525 40bb568
Настройки программы : cabac=1 / ref=10 / deblock=1:-3:-3 / analyse=0x3:0x113 / me=umh / subme=11 / psy=1 / psy_rd=1.00:0.00 / mixed_ref=1 / me_range=48 / chroma_me=1 / trellis=2 / 8x8dct=1 / cqm=0 / deadzone=21,11 / fast_pskip=0 / chroma_qp_offset=-2 / threads=4 / lookahead_threads=1 / sliced_threads=0 / nr=0 / decimate=1 / interlaced=0 / bluray_compat=0 / constrained_intra=0 / bframes=16 / b_pyramid=2 / b_adapt=2 / b_bias=0 / direct=1 / weightb=1 / open_gop=0 / weightp=2 / keyint=240 / keyint_min=23 / scenecut=40 / intra_refresh=0 / rc_lookahead=40 / rc=crf / mbtree=0 / crf=18.9 / qcomp=0.60 / qpmin=0 / qpmax=69 / qpstep=4 / vbv_maxrate=62500 / vbv_bufsize=50000 / crf_max=0.0 / nal_hrd=none / filler=0 / ip_ratio=1.40 / pb_ratio=1.30 / aq=3:0.70 / zones=204700,207241,q=30
Язык : English
Default : Да
Forced : Нет
Основные цвета : BT.709-5, BT.1361, IEC 61966-2-4, SMPTE RP177
Характеристики трансфера : BT.709-5, BT.1361
Коэффициенты матрицы : BT.709-5, BT.1361, IEC 61966-2-4 709, SMPTE RP177
Аудио #1
Идентификатор : 2
Формат : AC-3
Формат/Информация : Audio Coding 3
Расширение режима : CM (complete main)
Параметр Endianness формата : Big
Идентификатор кодека : A_AC3
Продолжительность : 2 ч. 24 м.
Вид битрейта : Постоянный
Битрейт : 192 Кбит/сек
Каналы : 2 канала
Расположение каналов : Front: L R
Частота : 48,0 КГц
Битовая глубина : 16 бит
Метод сжатия : С потерями
Размер потока : 198 Мбайт (4%)
Заголовок : DVO_Kultura
Язык : Russian
Default : Да
Forced : Нет
Аудио #2
Идентификатор : 3
Формат : AC-3
Формат/Информация : Audio Coding 3
Расширение режима : CM (complete main)
Параметр Endianness формата : Big
Идентификатор кодека : A_AC3
Продолжительность : 2 ч. 24 м.
Вид битрейта : Постоянный
Битрейт : 192 Кбит/сек
Каналы : 2 канала
Расположение каналов : Front: L R
Частота : 48,0 КГц
Битовая глубина : 16 бит
Метод сжатия : С потерями
Размер потока : 198 Мбайт (4%)
Заголовок : AVO_Kuznecov
Язык : Russian
Default : Нет
Forced : Нет
Аудио #3
Идентификатор : 4
Формат : AC-3
Формат/Информация : Audio Coding 3
Расширение режима : CM (complete main)
Параметр Endianness формата : Big
Идентификатор кодека : A_AC3
Продолжительность : 2 ч. 24 м.
Вид битрейта : Постоянный
Битрейт : 224 Кбит/сек
Каналы : 2 канала
Расположение каналов : Front: L R
Частота : 48,0 КГц
Битовая глубина : 16 бит
Метод сжатия : С потерями
Размер потока : 231 Мбайт (4%)
Заголовок : Original
Язык : English
Default : Нет
Forced : Нет
Текст
Идентификатор : 5
Формат : UTF-8
Идентификатор кодека : S_TEXT/UTF8
Идентификатор кодека/Информация : UTF-8 Plain Text
Язык : English
Default : Нет
Forced : Нет
Меню
00:00:00.000 : en:01.
00:14:01.716 : en:02.
00:27:59.803 : en:03.
00:35:55.403 : en:04.
00:52:10.878 : en:05.
01:02:42.217 : en:06.
01:17:09.959 : en:07.
01:28:22.964 : en:08.
01:38:40.915 : en:09.
01:49:24.767 : en:10.
02:03:00.915 : en:11.
02:14:24.181 : en:12.СкриншотыСравнение с исходником Рип-- БД
ДополнительноDVO AC3 DD 2 (L,R) ch 192 kbps 48 KHz Скачать



Показать сообщения:    

Текущее время: 05-Дек 11:29

Часовой пояс: UTC + 3


Вы не можете начинать темы
Вы не можете отвечать на сообщения
Вы не можете редактировать свои сообщения
Вы не можете удалять свои сообщения
Вы не можете голосовать в опросах
Вы не можете прикреплять файлы к сообщениям
Вы не можете скачивать файлы