Улица стыда / Akasen chitai / Street of Shame (Мидзогути Кэндзи / Mizoguchi Kenji) [1956, Япония, драма, DVDRip] Original Jap + Sub (Rus, Eng)


Статистика раздачи [Обновить пиров]
Размер:  1.16 GB   |    Зарегистрирован:  1 год 1 месяц   |    Скачан:  0 раз

Полного источника не было: Никогда

 
   
 
 
 

[Цитировать]

Улица стыда / Akasen chitai
Страна: Япония
Жанр: драма
Год выпуска: 1956
Продолжительность: 01:25:53
Перевод: Субтитры
Cубтитры: русские, английские
Режиссер: Мидзогути Кэндзи/ Mizoguchi Kenji
В ролях: Матико Кё, Аяко Вакао, Митие Когурэ, Айко Мимасу, Кэндзи Сугавара, Ясуко Каваками, Эйтаро Синдо
Описание: 1956 год. Япония накануне принятия закона, запрещающего проституцию. В своей последней картине Мидзогути рассказывает о том, как живут несколько женщин из «веселого дома». Если закон будет принят, героини ленты окажутся в тюрьме....
Сэмпл: http://sendfile.su/1090186
Качество видео: DVDRip
Формат видео: AVI
Видео: XviD build 47, 624x448, 23.976 fps, 1735 kbps
Аудио: MPEG Layer 3, 48 kHz, 192.00 kbps, 2 ch

MediaInfo

Формат : AVI
Формат/Информация : Audio Video Interleave
Размер файла : 1,16 Гбайт
Продолжительность : 1 ч. 25 м.
Общий поток : 1937 Кбит/сек
Программа кодирования : VirtualDubMod 1.5.4.1 (build 2178/release)
Библиотека кодирования : VirtualDubMod build 2178/release
Видео
Идентификатор : 0
Формат : MPEG-4 Visual
Профиль формата : Advanced Simple@L5
Параметр BVOP формата : 1
Параметр QPel формата : Нет
Параметр GMC формата : Без точки перехода
Параметр матрицы формата : Default (MPEG)
Идентификатор кодека : XVID
Идентификатор кодека/Подсказка : XviD
Продолжительность : 1 ч. 25 м.
Битрейт : 1736 Кбит/сек
Ширина : 624 пикселя
Высота : 448 пикселей
Соотношение сторон : 1,393
Частота кадров : 23,976 кадра/сек
Цветовое пространство : YUV
Субдискретизация насыщенности : 4:2:0
Битовая глубина : 8 бит
Тип развёртки : Прогрессивная
Метод сжатия : С потерями
Бит/(Пиксели*Кадры) : 0.259
Размер потока : 1,04 Гбайт (90%)
Библиотека кодирования : XviD 1.2.0.dev47 (UTC 2006-11-01)
Аудио
Идентификатор : 1
Формат : MPEG Audio
Версия формата : Version 1
Профиль формата : Layer 3
Режим : Joint stereo
Расширение режима : MS Stereo
Идентификатор кодека : 55
Идентификатор кодека/Подсказка : MP3
Продолжительность : 1 ч. 25 м.
Вид битрейта : Постоянный
Битрейт : 192 Кбит/сек
Каналы : 2 канала
Частота : 48,0 КГц
Метод сжатия : С потерями
Размер потока : 118 Мбайт (10%)
Выравнивание : Соединение по промежуткам
Продолжительность промежутка : 42 мс. (1,00 видеокадр)
Время предзагрузки промежутка : 504 мс.

Скриншоты

Субтитры

529
00:47:50,662 --> 00:47:53,284
Он кучу денег должен.
530
00:47:53,457 --> 00:47:55,829
Я ему дал 30,000.
531
00:48:51,975 --> 00:48:53,469
Кто это?
532
00:48:54,603 --> 00:48:57,770
Машинистка с моей работы.
533
00:48:57,981 --> 00:48:59,689
Очень красивая.
534
00:49:00,442 --> 00:49:02,399
У ее отца ресторан.
535
00:49:02,820 --> 00:49:04,314
Как ее зовут?
536
00:49:04,488 --> 00:49:07,026
Что ты привязалась?
537
00:49:07,908 --> 00:49:10,115
Ясу... Ясухара-кун.
538
00:49:11,662 --> 00:49:13,240
Пойду поздороваюсь.
539
00:49:16,667 --> 00:49:19,454
Ясухара-сан?
540
00:49:19,879 --> 00:49:22,548
Я супруга господина Канеды.
541
00:49:22,924 --> 00:49:26,090
Спасибо, что заботитесь о моем муже.
542
00:49:26,302 --> 00:49:32,059
Что вы...ваш муж так добр ко мне.
543
00:49:34,151 --> 00:49:36,255
Он бывает грубоват.
544
00:49:36,608 --> 00:49:37,751
Что вы!..
545
00:49:45,750 --> 00:49:47,363
Аоки-сан.
546
00:49:47,741 --> 00:49:50,029
Вот обещанные 150000 тысяч.
547
00:49:50,911 --> 00:49:52,868
Как я рада.
548
00:49:53,330 --> 00:49:56,663
Никогда не забуду вашей доброты.
549
00:49:59,253 --> 00:50:03,713
Мне очень повезло встретить такого человека.
550
00:50:04,591 --> 00:50:08,803
Ят-тян, когда уйдешь оттуда? Приходи сегодня.
551
00:50:11,164 --> 00:50:12,664
Не могу...
552
00:50:12,850 --> 00:50:14,724
Как же мне сказать...
553
00:50:15,519 --> 00:50:18,437
В чем дело? Есть что-то помимо долгов?
[teatrix.ru].t5972.torrent 
Торрент: Зарегистрирован [ 2015-10-10 09:49 ] · 9BC658EC3A5F69245778BC8F4B43DF93806015B5

Скачать .torrent

Скачать

12 KB

Статус: проверено
Скачан: 0 раз
Размер: 1.16 GB
terms.php



Быстрый ответ

Имя:

      
Для отправки сообщений необходимо включить JavaScript
Показать сообщения:    

Текущее время: 06-Дек 19:04

Часовой пояс: UTC + 3


Вы можете начинать темы
Вы можете отвечать на сообщения
Вы не можете редактировать свои сообщения
Вы не можете удалять свои сообщения
Вы не можете голосовать в опросах
Вы не можете прикреплять файлы к сообщениям
Вы можете скачивать файлы