Полный беспредел / Outrage Beyond / Autoreiji: Biyondo (Такеши Китано / Takeshi Kitano) [2012, Япония, боевик, криминал, триллер, драма, BDRip] MVO


 

[Цитировать]

Полный беспредел / Outrage Beyond / Autoreiji: Biyondo
Страна: Япония
Жанр: боевик, криминал, триллер, драма
Год выпуска: 2012
Продолжительность: 01:52:28
Перевод: Профессиональный (многоголосый закадровый)
Cубтитры: нет

Режиссер: Такеши Китано / Takeshi Kitano
В ролях: Такеши Китано, Рё Касэ, Тосиюки Нисида, Сюн Сугата, Мачико Оно, Сигэру Кояма, Томокадзу Миура, Кента Киритани, Кен Мицуйси, Акира Накао
Описание: Криминальная семья Санно выросла в огромную организацию, чья власть распространилась на политику и крупный легальный бизнес. Амбициозный детектив Катаока при помощи тайных заговоров и грязных трюков провоцирует конфликт Между Санно и их давними врагами Ханабиши, надеясь, что они окончательно уничтожат друг друга. Но козырем в руках Катаоки может стать тот факт, что из тюрьмы готовится выйти Отомо, босс семьи, когда-то раздавленной Санно, которого многие считали мертвым. Неожиданное возвращение Отомо сеет еще больше лжи и предательства между семьям. Невозможно угадать, кто одержит верх в этой свирепой схватке за власть.
Качество видео: BDRip
Формат видео: AVI
Видео: 720x304 (2.37:1), 23.976 fps, XviD build 73 ~1398 kbps avg, 0.27 bit/pixel
Аудио: 48 kHz, AC3 Dolby Digital, 3/2 (L,C,R,l,r) + LFE ch, ~448 kbps

MediaInfo

Общее
Полное имя : H:\Autoreiji_Biyondo.2012.bdrip_[1.46]_[teko].avi
Формат : AVI
Формат/Информация : Audio Video Interleave
Размер файла : 1,46 Гбайт
Продолжительность : 1 ч. 52 м.
Общий поток : 1856 Кбит/сек
Программа кодирования : VirtualDubMod 1.5.10.3 | www.virtualdub-fr.org || (build 2550/release)
Библиотека кодирования : VirtualDubMod build 2550/release
Видео
Идентификатор : 0
Формат : MPEG-4 Visual
Профиль формата : Advanced Simple@L5
Параметр BVOP формата : 1
Параметр QPel формата : Нет
Параметр GMC формата : Без точки перехода
Параметр матрицы формата : Выборочная
Идентификатор кодека : XVID
Идентификатор кодека/Подсказка : XviD
Продолжительность : 1 ч. 52 м.
Битрейт : 1399 Кбит/сек
Ширина : 720 пикселей
Высота : 304 пикселя
Соотношение сторон : 2,35:1
Частота кадров : 23,976 кадра/сек
Цветовое пространство : YUV
Субдискретизация насыщенности : 4:2:0
Битовая глубина : 8 бит
Тип развёртки : Прогрессивная
Метод сжатия : С потерями
Бит/(Пиксели*Кадры) : 0.267
Размер потока : 1,10 Гбайт (75%)
Библиотека кодирования : XviD 73
Аудио
Идентификатор : 1
Формат : AC-3
Формат/Информация : Audio Coding 3
Расширение режима : CM (complete main)
Параметр Endianness формата : Big
Идентификатор кодека : 2000
Продолжительность : 1 ч. 52 м.
Вид битрейта : Постоянный
Битрейт : 448 Кбит/сек
Каналы : 6 каналов
Расположение каналов : Front: L C R, Side: L R, LFE
Частота : 48,0 КГц
Битовая глубина : 16 бит
Метод сжатия : С потерями
Размер потока : 360 Мбайт (24%)
Выравнивание : Разделение по промежуткам
Продолжительность промежутка : 42 мс. (1,00 видеокадр)
Время предзагрузки промежутка : 500 мс.



Показать сообщения:    

Текущее время: 04-Дек 02:55

Часовой пояс: UTC + 3


Вы не можете начинать темы
Вы не можете отвечать на сообщения
Вы не можете редактировать свои сообщения
Вы не можете удалять свои сообщения
Вы не можете голосовать в опросах
Вы не можете прикреплять файлы к сообщениям
Вы не можете скачивать файлы