Дикие сердцем / Wild At Heart (Дэвид Линч / David Lynch) [1990, США, триллер, комедия, криминал, DVDRip] DVO + Original Eng


Статистика раздачи [Обновить пиров]
Размер:  1.37 GB   |    Зарегистрирован:  1 год 1 месяц   |    Скачан:  0 раз

Полного источника не было: Никогда

 
   
 
 
 

[Цитировать]

Дикие сердцемWild At Heart Страна: США
Жанр: триллер, комедия, криминал
Год выпуска: 1990
Продолжительность: 01:59:55-Перевод: Профессиональный (двухголосый закадровый) текст читали Лариса Некипелова и Борис Токарев
Cубтитры: нет
Оригинальная аудиодорожка: английский-Режиссер: Дэвид Линч / David Lynch
В ролях: Николас Кейдж, Лoра Дерн, Уиллем Дефо, Дж. Э. Фримен, Криспин Гловер, Дайан Лэдд, Кэлвин Локхарт, Изабелла Росселлини, Гарри Дин Стэнтон, Грейс Забриски-Описание: Дикие сердцем - это бешеная любовь и приключения двух молодых людей. Сейлор и Лула спасаются от безжалостной команды наемных убийц, нанятых безумной матерью Лулы Мариэттой. В погоню за беглецами вначале пускается дружок Мариэтты, частный детектив Джонни, а когда Джонни возвращается ни с чем, Мариэтта призывает на помощь своего бывшего любовника, гангстера Сантоса...-Сэмпл-Качество видео: DVDRip
Формат видео: AVI
Видео: 720x304 (2.37:1), 25 fps, XviD MPEG-4 ~1208 kbps avg, 0.22 bit/pixel
Аудио: 48 kHz, MPEG Layer 3, 2 ch, ~192.00 kbps avg
Аудио 2: 48 kHz, MPEG Layer 3, 2 ch, ~224.00 kbps avg

MediaInfo

Общее
Полное имя : E:\Torrent\Wild.At.Heart.1990.avi
Формат : AVI
Формат/Информация : Audio Video Interleave
Размер файла : 1,37 Гбайт
Продолжительность : 1 ч. 59 м.
Общий поток : 1640 Кбит/сек
Программа кодирования : VirtualDubMod 1.5.10.2 (build 2540/release)
Библиотека кодирования : VirtualDubMod build 2540/release
Видео
Идентификатор : 0
Формат : MPEG-4 Visual
Параметр BVOP формата : Нет
Параметр QPel формата : Нет
Параметр GMC формата : Без точки перехода
Параметр матрицы формата : Default (H.263)
Идентификатор кодека : XVID
Идентификатор кодека/Подсказка : XviD
Продолжительность : 1 ч. 59 м.
Битрейт : 1209 Кбит/сек
Ширина : 720 пикселей
Высота : 304 пикселя
Соотношение сторон : 2,35:1
Частота кадров : 25,000 кадров/сек
Цветовое пространство : YUV
Субдискретизация насыщенности : 4:2:0
Битовая глубина : 8 бит
Тип развёртки : Прогрессивная
Метод сжатия : С потерями
Бит/(Пиксели*Кадры) : 0.221
Размер потока : 1,01 Гбайт (74%)
Аудио #1
Идентификатор : 1
Формат : MPEG Audio
Версия формата : Version 1
Профиль формата : Layer 3
Режим : Joint stereo
Расширение режима : MS Stereo
Идентификатор кодека : 55
Идентификатор кодека/Подсказка : MP3
Продолжительность : 1 ч. 59 м.
Вид битрейта : Постоянный
Битрейт : 192 Кбит/сек
Каналы : 2 канала
Частота : 48,0 КГц
Метод сжатия : С потерями
Размер потока : 165 Мбайт (12%)
Выравнивание : Разделение по промежуткам
Продолжительность промежутка : 40 мс. (1,00 видеокадр)
Время предзагрузки промежутка : 500 мс.
Библиотека кодирования : LAME3.93
Аудио #2
Идентификатор : 2
Формат : MPEG Audio
Версия формата : Version 1
Профиль формата : Layer 3
Режим : Joint stereo
Идентификатор кодека : 55
Идентификатор кодека/Подсказка : MP3
Продолжительность : 1 ч. 59 м.
Вид битрейта : Постоянный
Битрейт : 224 Кбит/сек
Каналы : 2 канала
Частота : 48,0 КГц
Метод сжатия : С потерями
Размер потока : 192 Мбайт (14%)
Выравнивание : Соединение по промежуткам
Продолжительность промежутка : 40 мс. (1,00 видеокадр)
Время предзагрузки промежутка : 504 мс.
Библиотека кодирования : LAME3.99.5

Скриншот c названием фильма

Скриншоты

[teatrix.ru].t5977.torrent 
Торрент: Зарегистрирован [ 2015-10-10 09:49 ] · FEFB099CEAB546B450233EC572DA2632FF4500C0

Скачать .torrent

Скачать

14 KB

Статус: проверено
Скачан: 0 раз
Размер: 1.37 GB
terms.php



Быстрый ответ

Имя:

      
Для отправки сообщений необходимо включить JavaScript
Показать сообщения:    

Текущее время: 07-Дек 23:20

Часовой пояс: UTC + 3


Вы можете начинать темы
Вы можете отвечать на сообщения
Вы не можете редактировать свои сообщения
Вы не можете удалять свои сообщения
Вы не можете голосовать в опросах
Вы не можете прикреплять файлы к сообщениям
Вы можете скачивать файлы