Беспечный ездок / Easy Rider (Деннис Хоппер / Dennis Hopper) [1969, США, драма, BDRip] MVO (Первый Канал) + Original Eng


 

[Цитировать]

Беспечный Ездок / Easy Rider
Год выпуска: 1969
Страна: США
Жанр: драма
Продолжительность: 01:35:33
Перевод: Профессиональный (многоголосый закадровый) - Первый Канал
Cубтитры: нет
Оригинальная аудиодорожка: английский
Режиссер: Деннис Хоппер / Dennis Hopper
В ролях: Питер Фонда (Wyatt), Деннис Хоппер (Billy), Джек Николсон (George Hanson), Антонио Мендоза (Jesus), Фил Спектор (Connection), Мак Машурян (Bodyguard), Уоррен Финнерти (Rancher), Тита Колорадо (Rancher's Wife), Люк Аскью (Stranger on Highway), Луана Андерс (Lisa)-Мировая премьера: 8 мая 1969-Описание: Два друга садятся на мотоциклы и уезжают из Лос-Анджелеса, чтобы насладиться романтикой свободы и путешествия. Но чем дальше они едут по просторам Америки, тем более ясно им становится, что свободные люди родине не нужны…-Данный перевод на трекере появляется впервые.
На русский язык фильм озвучен по заказу Первого Канала.-Рейтинг

MPAA: R - Лицам до 17 лет обязательно присутствие взрослого.-Качество видео: BDRip
Формат видео: AVI -> //SAMPLE//
Видео: XviD, 720x384 (1,85:1), 23.976 fps, 1790 kbps avg
Аудио:
1 - 48 khz, AC3 Dolby Digital, 2/0 (L,R) ch, ~192 kbps [Первый Канал] SATRip
2 - 48 khz, AC3 Dolby Digital, 2/0 (L,R) ch, ~192 kbps [Английский]

MediaInfo

Общее
Полное имя : D:\Релизы На Трекере\Беспечный Ездок (Первый Канал + Original Eng).avi
Формат : AVI
Формат/Информация : Audio Video Interleave
Размер файла : 1,46 Гбайт
Продолжительность : 1 ч. 35 м.
Общий поток : 2188 Кбит/сек
Название фильма : Беспечный ездок / Easy Rider (1969)
Режиссёр : Shevon (BDRemux)
Программа кодирования : VirtualDubMod 1.5.10.2 (build 2540/release)
Библиотека кодирования : VirtualDubMod build 2540/release
Правообладатель : HQ-ViDEO (www.hq-video.ru)
Примечание : 26.09.2009
Видео
Идентификатор : 0
Формат : MPEG-4 Visual
Профиль формата : Advanced Simple@L5
Параметр BVOP формата : 1
Параметр QPel формата : Нет
Параметр GMC формата : Без точки перехода
Параметр матрицы формата : Выборочная
Идентификатор кодека : XVID
Идентификатор кодека/Подсказка : XviD
Продолжительность : 1 ч. 35 м.
Битрейт : 1790 Кбит/сек
Ширина : 720 пикселей
Высота : 384 пикселя
Соотношение сторон : 1,85:1
Частота кадров : 23,976 кадра/сек
Цветовое пространство : YUV
Субдискретизация насыщенности : 4:2:0
Битовая глубина : 8 бит
Тип развёртки : Прогрессивная
Метод сжатия : С потерями
Бит/(Пиксели*Кадры) : 0.270
Размер потока : 1,19 Гбайт (82%)
Библиотека кодирования : XviD 1.2.1 (UTC 2008-12-04)
Аудио #1
Идентификатор : 1
Формат : AC-3
Формат/Информация : Audio Coding 3
Расширение режима : CM (complete main)
Параметр Endianness формата : Big
Идентификатор кодека : 2000
Продолжительность : 1 ч. 35 м.
Вид битрейта : Постоянный
Битрейт : 192 Кбит/сек
Каналы : 2 канала
Расположение каналов : Front: L R
Частота : 48,0 КГц
Битовая глубина : 16 бит
Метод сжатия : С потерями
Размер потока : 131 Мбайт (9%)
Выравнивание : Разделение по промежуткам
Продолжительность промежутка : 42 мс. (1,00 видеокадр)
Время предзагрузки промежутка : 500 мс.
Аудио #2
Идентификатор : 2
Формат : AC-3
Формат/Информация : Audio Coding 3
Расширение режима : CM (complete main)
Параметр Endianness формата : Big
Идентификатор кодека : 2000
Продолжительность : 1 ч. 35 м.
Вид битрейта : Постоянный
Битрейт : 192 Кбит/сек
Каналы : 2 канала
Расположение каналов : Front: L R
Частота : 48,0 КГц
Битовая глубина : 16 бит
Метод сжатия : С потерями
Размер потока : 131 Мбайт (9%)
Выравнивание : Разделение по промежуткам
Продолжительность промежутка : 42 мс. (1,00 видеокадр)
Время предзагрузки промежутка : 500 мс.

Скриншот c названием фильма

Скриншоты




Показать сообщения:    

Текущее время: 10-Дек 21:33

Часовой пояс: UTC + 3


Вы не можете начинать темы
Вы не можете отвечать на сообщения
Вы не можете редактировать свои сообщения
Вы не можете удалять свои сообщения
Вы не можете голосовать в опросах
Вы не можете прикреплять файлы к сообщениям
Вы не можете скачивать файлы