Ида / Ida (Павел Павликовский / Pawel Pawlikowski) [2013, Польша, Дания, Франция, Великобритания, драма, HDRip] DVO (Pashaup, ИриСка) + VO (R.A.I.M.) + Original Pol + Sub Rus, Eng


 

[Цитировать]

Ида / Ida Страна: Польша, Дания, Франция, Великобритания
Жанр: драма
Год выпуска: 2013
Продолжительность: 01:21:49
Перевод 1: Любительский (двухголосый закадровый) Pashaup и ИриСка
Перевод 2: Одноголосый закадровый R.A.I.M.
Cубтитры: русские 2x (daft-digger и MPil), английские SRT (внешние)
Оригинальная дорожка: польский
Режиссер: Павел Павликовский / Pawel Pawlikowski
В ролях: Агата Кулеша, Агата Тшебуховска, Давид Огродник, Иоанна Кулиг, Ежи Треля, Адам Шишковский, Халина Скочиньска, Ян Порадовский, Мариуш Якус, Артур Маевский
Описание: Сирота Анна провела детство и юность в польском монастыре. Прежде чем принять обет и стать монахиней, девушка решает встретиться со своей единственной родственницей — Вандой. От неё Анна узнаёт, что она еврейка и что её родители стали жертвами холокоста. Вдвоём они отправляются в путешествие для того, чтобы точно выяснить трагическую судьбу их семьи. В пути они столкнутся с обстоятельствами, которые поставят под сомнение их веру, и хотя женщины попытаются жить как прежде, лишь одной из них это удастся…

Качество видео: HDRip
Формат видео: AVI
Видео кодек: XviD
Аудио кодек: AC3
Видео: 704x528 (1.33:1), 24.000 fps, XviD build 73 ~1776 kbps avg, 0.20 bit/pixel
Аудио#1: 48 kHz, AC3 Dolby Digital, 2/0 (L,R) ch, ~192 kbps - Pashaup и ИриСка
Аудио#2: 48 kHz, AC3 Dolby Digital, 2/0 (L,R) ch, ~192 kbps - R.A.I.M.
Аудио#3: 48 kHz, AC3 Dolby Digital, 3/2 (L,C,R,l,r) + LFE ch, ~384 kbps - Оригинал

MediaInfo

Полное имя : Ида\Ида.avi
Формат : AVI
Формат/Информация : Audio Video Interleave
Размер файла : 1,47 Гбайт
Продолжительность : 1 ч. 21 м.
Общий поток : 2565 Кбит/сек
Программа кодирования : VirtualDubMod 1.5.10.2 (build 2540/release)
Видео
Идентификатор : 0
Формат : MPEG-4 Visual
Профиль формата : Advanced Simple@L5
Параметр BVOP формата : 2
Параметр QPel формата : Нет
Параметр GMC формата : Без точки перехода
Параметр матрицы формата : Выборочная
Идентификатор кодека : XVID
Идентификатор кодека/Подсказка : XviD
Продолжительность : 1 ч. 21 м.
Битрейт : 1779 Кбит/сек
Ширина : 704 пикселя
Высота : 528 пикселей
Соотношение сторон : 4:3
Частота кадров : 24,000 кадра/сек
Цветовое пространство : YUV
Субдискретизация насыщенности : 4:2:0
Битовая глубина : 8 бит
Тип развёртки : Прогрессивная
Метод сжатия : С потерями
Бит/(Пиксели*Кадры) : 0.199
Размер потока : 1,02 Гбайт (69%)
Библиотека кодирования : XviD 73
Аудио #1
Идентификатор : 1
Формат : AC-3
Формат/Информация : Audio Coding 3
Расширение режима : CM (complete main)
Параметр Endianness формата : Big
Идентификатор кодека : 2000
Продолжительность : 1 ч. 21 м.
Вид битрейта : Постоянный
Битрейт : 192 Кбит/сек
Каналы : 2 канала
Расположение каналов : Front: L R
Частота : 48,0 КГц
Битовая глубина : 16 бит
Метод сжатия : С потерями
Размер потока : 112 Мбайт (7%)
Выравнивание : Разделение по промежуткам
Продолжительность промежутка : 42 мс. (1,00 видеокадр)
Время предзагрузки промежутка : 500 мс.
Заголовок : PashaUp и ИриСка
Аудио #2
Идентификатор : 2
Формат : AC-3
Формат/Информация : Audio Coding 3
Расширение режима : CM (complete main)
Параметр Endianness формата : Big
Идентификатор кодека : 2000
Продолжительность : 1 ч. 21 м.
Вид битрейта : Постоянный
Битрейт : 192 Кбит/сек
Каналы : 2 канала
Расположение каналов : Front: L R
Частота : 48,0 КГц
Битовая глубина : 16 бит
Метод сжатия : С потерями
Размер потока : 112 Мбайт (7%)
Выравнивание : Разделение по промежуткам
Продолжительность промежутка : 42 мс. (1,00 видеокадр)
Время предзагрузки промежутка : 500 мс.
Заголовок : RAIM
Аудио #3
Идентификатор : 3
Формат : AC-3
Формат/Информация : Audio Coding 3
Расширение режима : CM (complete main)
Параметр Endianness формата : Big
Идентификатор кодека : 2000
Продолжительность : 1 ч. 21 м.
Вид битрейта : Постоянный
Битрейт : 384 Кбит/сек
Каналы : 6 каналов
Расположение каналов : Front: L C R, Side: L R, LFE
Частота : 48,0 КГц
Битовая глубина : 16 бит
Метод сжатия : С потерями
Размер потока : 225 Мбайт (15%)
Выравнивание : Разделение по промежуткам
Продолжительность промежутка : 42 мс. (1,00 видеокадр)
Время предзагрузки промежутка : 500 мс.
Заголовок : Оригинал

Скриншоты




Показать сообщения:    

Текущее время: 10-Дек 04:06

Часовой пояс: UTC + 3


Вы не можете начинать темы
Вы не можете отвечать на сообщения
Вы не можете редактировать свои сообщения
Вы не можете удалять свои сообщения
Вы не можете голосовать в опросах
Вы не можете прикреплять файлы к сообщениям
Вы не можете скачивать файлы