Любовь юной Нак / Nang Nak (Нонзи Нимибутр / Nonzee Nimibutr) [1999, Таиланд, Мистическая мелодрама, DVDRemux] Proper (PAL) + 5.1 DVO (Мистерия DVD) + Original + Sub Eng


Статистика раздачи [Обновить пиров]
Размер:  4.85 GB   |    Зарегистрирован:  1 год 2 месяца   |    Скачан:  0 раз

Полного источника не было: Никогда

 
   
 
 
 

[Цитировать]

ЛЮБОВЬ ЮНОЙ НАК / Nang Nak
Страна: Таиланд
Жанр: Мистическая мелодрама
Год выпуска: 1999
Продолжительность: 01:37:09
Перевод: Профессиональный (двухголосый закадровый) Мистерия DVD
Cубтитры: английские
Оригинальная аудиодорожка: Тайский
Режиссер: Нонзи Нимибутр / Nonzee Nimibutr
В ролях: Индира Чароенпура, Винаи Краибутр
Описание: Старинная легенда о любви, которая сильнее смерти. На фоне тропических пейзажей переплетаются любовь, мистика, гипнотические буддийские ритуалы и завораживающая музыка.
Сэмпл: http://sendfile.su/1088619
Качество видео: DVDRemux
Формат видео: MPEG-TS
Видео: MPEG2, 720x576, 16:9, 25.000 fps, TFF, vbr 6146 kbps
Аудио: AC3, 48 kHz, 448 kbps, 6 ch, Русский
Аудио 2: AC3, 48 kHz, 192 kbps, 2 ch, Тайский
Формат субтитров: softsub (SRT)

MediaInfo

General
ID : 1 (0x1)
Complete name : I:\DHARMA\FILMS_MIR_KULT\Любовь_юной_Нак_1999\Любовь_юной_Нак_1999_Mpeg2\Любовь_юной_Нак_1999_Mpeg2.ts
Format : MPEG-TS
File size : 4.85 GiB
Duration : 1h 37mn
Overall bit rate mode : Variable
Overall bit rate : 7 145 Kbps
Maximum Overall bit rate : 35.5 Mbps
Video
ID : 4113 (0x1011)
Menu ID : 1 (0x1)
Format : MPEG Video
Format version : Version 2
Format profile : Main@Main
Format settings, BVOP : Yes
Format settings, Matrix : Custom
Format settings, GOP : Variable
Codec ID : 2
Duration : 1h 37mn
Bit rate mode : Variable
Bit rate : 6 146 Kbps
Maximum bit rate : 9 000 Kbps
Width : 720 pixels
Height : 576 pixels
Display aspect ratio : 16:9
Frame rate : 25.000 fps
Standard : PAL
Color space : YUV
Chroma subsampling : 4:2:0
Bit depth : 8 bits
Scan type : Interlaced
Scan order : Top Field First
Compression mode : Lossy
Bits/(Pixel*Frame) : 0.593
Stream size : 4.17 GiB (86%)
Audio #1
ID : 4352 (0x1100)
Menu ID : 1 (0x1)
Format : AC-3
Format/Info : Audio Coding 3
Mode extension : CM (complete main)
Format settings, Endianness : Big
Codec ID : 129
Duration : 1h 37mn
Bit rate mode : Constant
Bit rate : 448 Kbps
Channel(s) : 6 channels
Channel positions : Front: L C R, Side: L R, LFE
Sampling rate : 48.0 KHz
Bit depth : 16 bits
Compression mode : Lossy
Delay relative to video : -51ms
Stream size : 311 MiB (6%)
Language : Russian
Audio #2
ID : 4353 (0x1101)
Menu ID : 1 (0x1)
Format : AC-3
Format/Info : Audio Coding 3
Mode extension : CM (complete main)
Format settings, Endianness : Big
Codec ID : 129
Duration : 1h 37mn
Bit rate mode : Constant
Bit rate : 192 Kbps
Channel(s) : 2 channels
Channel positions : Front: L R
Sampling rate : 48.0 KHz
Bit depth : 16 bits
Compression mode : Lossy
Delay relative to video : -80ms
Stream size : 133 MiB (3%)
Language : tai

Скриншот c названием фильма

[teatrix.ru].t5980.torrent 
Торрент: Зарегистрирован [ 2015-10-10 09:49 ] · 65EDAEB1080F53BA84D958B6942C86F2B998F205

Скачать .torrent

Скачать

13 KB

Статус: проверено
Скачан: 0 раз
Размер: 4.85 GB
terms.php



Быстрый ответ

Имя:

      
Для отправки сообщений необходимо включить JavaScript
Показать сообщения:    

Текущее время: 11-Дек 05:21

Часовой пояс: UTC + 3


Вы можете начинать темы
Вы можете отвечать на сообщения
Вы не можете редактировать свои сообщения
Вы не можете удалять свои сообщения
Вы не можете голосовать в опросах
Вы не можете прикреплять файлы к сообщениям
Вы можете скачивать файлы